<?xml version="1.0" standalone="no"?>
<!DOCTYPE svg PUBLIC "-//W3C//DTD SVG 1.1//EN" "http://www.w3.org/Graphics/SVG/1.1/DTD/svg11.dtd" >
<!--
2013-9-13: Created.
-->
<svg xmlns="http://www.w3.org/2000/svg" xmlns:xlink="http://www.w3.org/1999/xlink" version="1.1">
<metadata>
Created by FontForge 20140606 at Mon Jul 21 09:17:23 2014
 By Jany Belluz
Created by Jany Belluz with FontForge 2.0 (http://fontforge.sf.net)
</metadata>
<defs>
<font id="FantasqueSansMono-BoldItalic" horiz-adv-x="1060" >
  <font-face 
    font-family="Fantasque Sans Mono"
    font-weight="700"
    font-style="italic"
    font-stretch="normal"
    units-per-em="2048"
    panose-1="2 11 8 9 2 2 4 3 2 4"
    ascent="1650"
    descent="-398"
    x-height="1013"
    cap-height="1329"
    bbox="-138 -671 1310 2142"
    underline-thickness="96"
    underline-position="-192"
    slope="-11"
    unicode-range="U+0020-E0B3"
  />
    <missing-glyph />
    <glyph glyph-name="a" unicode="a" 
d="M343 513c-18 -90 -25 -155 -25 -202c0 -121 49 -122 95 -122c110 0 228 186 257 242c19.333 99.333 38.667 198.667 58 298c-28 42 -87 90 -151 90c-66 0 -181 -40 -234 -306zM891 316c-3.329 -16.935 -5 -33 -5 -49c0 -71 31 -129 70 -166
c-52.667 -44 -105.333 -88 -158 -132c-41 37 -98 103 -98 196c0 7 0 13 1 20c-81 -136 -196 -196 -378 -196c-135 0 -254 62 -254 313c0 66 8.7274 146.053 27 241c75.867 394.215 334 485 480 485c81 0 164 -31 202 -87c6.667 28 13.333 56 20 84l230 -12
c-45.637 -232.183 -91.372 -464.867 -137 -697z" />
    <glyph glyph-name="b" unicode="b" 
d="M706 478c16.784 85.042 24 151 24 200c0 102 -31 135 -67 135c-138 0 -219 -123 -270 -243c-14.333 -73.667 -28.667 -147.333 -43 -221c31 -102 88 -176 149 -176c108 0 169.519 115.096 207 305zM957 459c-59.605 -307.076 -208 -466 -459 -466
c-124 0 -194 47 -222 100c-8 -42 -65 -106 -65 -106c-64 6.66667 -128 13.3333 -192 20c23 66 46.7647 153.559 65 236c1.7793 8.043 3.2207 15.957 5 24c54.706 247.324 118.185 609.965 172 890c18.062 93.99 27 178 33 246l249 9c-5 -73 -34.392 -242.93 -52 -334
c-17.386 -89.924 -59 -175 -92 -252c48 57 135 187 345 187c145 0 237 -110 237 -334c0 -64 -7.893 -137.021 -24 -220z" />
    <glyph glyph-name="c" unicode="c" 
d="M355 528c-9.805 -49.038 -14 -91 -14 -126c0 -194 125 -199 165 -199h12c100 0 167 66 231 147c66.667 -44.667 133.333 -89.333 200 -134c-97 -150 -243 -223 -461 -223c-104 0 -226 7.99999 -308 80c-73 67 -103 157 -103 269c0 56 7.9972 118.001 21 185
c65.986 340.003 274 491 589 491c182 0 298 -58 382 -142c-57.33 -66.667 -114.667 -133.333 -172 -200c-20 44 -129 131 -269 131c-147 0 -244.432 -136.116 -273 -279z" />
    <glyph glyph-name="d" unicode="d" 
d="M345 478c-14.967 -77.006 -22 -141 -22 -191c0 -73 37 -114 67 -114c90 0 216 87 304 297l42 213c-22 55 -54 133 -141 133c-54 0 -198.887 -75.022 -250 -338zM86 459c73.648 381.068 251 557 514 557c114 0 176 -58 208 -86c-1 14 -1 27 -1 40
c0 58 5.693 108.06 20 182c17.622 91.07 41 187 64 260l246 -9c-20 -68 -43.94 -152.01 -62 -246c-53.82 -280.035 -120.294 -642.676 -175 -890c-1.779 -8.043 -3.169 -15.965 -5 -24c-7.706 -33.824 -10 -71 -10 -107c0 -51 7 -99 21 -130
c-71.667 -5.33333 -143.333 -10.6667 -215 -16c-14 15 -32 105 -32 158c0 10 1 19 2 26c-62 -125 -182 -181 -306 -181c-150 0 -284 110 -284 322c0 44 4.9519 92.009 15 144z" />
    <glyph glyph-name="e" unicode="e" 
d="M379 606c25 4 60 5 98 5h58c69 0 137.034 1.947 168 22c20.022 12.966 35 45 35 78c0 51 -35 107 -143 107c-102 0 -187 -96 -216 -212zM632 1021c281 0 359 -169 359 -304c0 -39 -6.141 -73.951 -16 -102c-93.33 -265.525 -506 -194 -637 -219v-13
c0 -105 69 -187 157 -187c106 0 220 27 318 99l102 -180c-170 -90 -227 -125 -466 -125c-238 0 -361 147 -361 376c0 47 4.8182 97.036 15 150c55.016 286.186 246 505 529 505z" />
    <glyph glyph-name="f" unicode="f" 
d="M1041 1154c-72 57 -182 63 -238 63c-132 0 -157.43 -73.92 -169 -134c-5.192 -26.96 -13 -71 -13 -71h172c105 0 144 -12 172 -21c-20 -65.667 -40 -131.333 -60 -197c-20 7 -39 13 -95 13h-230l-156 -807h-257c52.333 269 104.667 538 157 807h-126
c7.333 68.333 14.667 136.667 22 205h144c3 16 6.167 32.97 10 52c26.134 129.76 135 354 451 354c86 0 234 -21 326 -65c-36.67 -66.33 -73.33 -132.67 -110 -199z" />
    <glyph glyph-name="g" unicode="g" 
d="M299 346c0 -112 35 -135 80 -135c98 0 359 293 389 390c6.333 37.667 12.667 75.333 19 113c-30 38 -100 113 -204 113c-150 0 -284 -174 -284 -481zM1095 1013l-129 -657c-76 -385 -216 -758 -612 -758c-115 0 -256 42 -429 145c33 67.333 66 134.667 99 202
c145 -101 258 -130 347 -130c212 0 293 295 331 418c-58 -84 -169 -241 -381 -241c-155 0 -255 148 -255 351c0 389 225 691 538 691c126 0 193 -53 241 -86c4 19 14 55 20 77c76.667 -4 153.33 -8 230 -12z" />
    <glyph glyph-name="p" unicode="p" 
d="M709 531c15.092 77.982 23 138 23 183c0 66 -17 97 -55 97c-129 0 -267 -207 -320 -327c-10.667 -57.667 -21.333 -115.333 -32 -173c27 -58 70 -118 145 -118c115 0 187.315 70.939 239 338zM163 739c1.667 8.667 3.333 17.333 5 26c16 83 20 166 23 231
c77.667 8.67 155.333 17.33 233 26c0 -2 1 -7 1 -11c0 -39 -14 -143 -18 -178c48 83 177 180 345 180c174 0 238 -107 238 -273c0 -57 -7.925 -121.014 -21 -189c-64.631 -336.071 -182 -559 -544 -559c-100 0 -139 37 -162 68c-4 -40 -4 -77 -10 -121
c-6 -30.3333 -12 -60.667 -18 -91c-18 -94 -28 -178 -34 -246c-83 -2.333 -166 -4.667 -249 -7c5 73 19 168 37 259z" />
    <glyph glyph-name="h" unicode="h" 
d="M977 566c-20 -103.333 -40.124 -206.643 -60 -310c-5 -26 -8 -48 -8 -66c0 -38 12 -62 41 -93l-213 -129c-38 27 -86 80 -86 163c0 14 1 29 4 45c19.709 105.112 40.668 210.006 61 315c18 95 25 160 25 205c0 98 -33 100 -58 100h-3c-105 0 -288 -225 -341 -378
c-27 -139.333 -54 -278.667 -81 -418h-245c74.9988 385.327 151.171 770.447 225 1156c18 94 26 178 32 246c83.333 3 166.667 6 250 9c-5 -73 -41.392 -277.93 -59 -369c-17.386 -89.924 -81 -199 -114 -276c42 28 171 247 393 247c132 0 252 -87 252 -302
c0 -43 -4 -91 -15 -145z" />
    <glyph glyph-name="i" unicode="i" 
d="M527 1406h291l-43 -225h-291zM481 1039c83.333 -8.66992 166.667 -17.3301 250 -26c-53 -273 -133 -687 -133 -687c-3 -17 -5 -34 -5 -51c0 -49 18 -93 86 -93c93 0 160 33 231 91c20 -63.333 40 -126.667 60 -190c-100 -71 -256 -101 -380 -101c-192 0 -269 79 -269 203
c0 23 3 47 8 73c31 159.667 62 319.333 93 479c0 0 -34 -34 -134 -82c-37 61.333 -74 122.667 -111 184c124 40 249 98 304 200z" />
    <glyph glyph-name="j" unicode="j" 
d="M744 1406h291l-43 -225h-291zM752 -78c-30 -153 -142 -311 -428 -311c-123 0 -273 28 -359 233c64 49.333 128 98.667 192 148c58 -145 120 -180 183 -180h18c120 0 137 105 146 140c51 253.667 102 507.333 153 761c2 11 3 23 3 33c0 53 -29 88 -85 88
c-50 0 -120 -28 -210 -97l-120 135c153 120 243 141 396 141c225 0 273 -154 273 -238c0 -12 -1 -24 -3 -32c-53 -273.667 -106 -547.333 -159 -821z" />
    <glyph glyph-name="k" unicode="k" 
d="M456 429c12 18 102 168 112 179c27 -9 50 -14 71 -14c63 0 100 43 117 132c1 5 1 10 1 15c0 34 -20 72 -70 72c-73 0 -246 -128 -246 -128c-44 -228 -89 -457 -133 -685h-249c80 409 159 819 239 1228c7 37 10 71 10 101c0 20 -1 38 -3 54c84 15 168 29 252 44
c3 -15 9 -39 9 -73c0 -18 -2 -38 -6 -61c-15 -74 -29 -149 -44 -223c-11 -58 -35 -121 -64 -174c0 0 141 121 284 121c173 0 274 -66 274 -209c0 -23 -3 -47 -8 -74c-34 -182 -118 -282 -250 -300c99 -156 156 -212 258 -298c-73 -55 -147 -111 -220 -166
c-76 72 -213 263 -334 459z" />
    <glyph glyph-name="l" unicode="l" 
d="M648 1422l-189 -987c-5 -30 -8 -57 -8 -81c0 -107 54 -157 173 -157c93 0 196 35 275 87c23.667 -67 47.333 -134 71 -201c-100 -71 -248 -101 -372 -101c-213 0 -412 131 -412 306c0 29 3 59 9 91c65.667 354.333 131.333 708.67 197 1063
c85.333 -6.67 170.667 -13.33 256 -20z" />
    <glyph glyph-name="m" unicode="m" 
d="M871 -32c-60 12 -173 44 -173 191c0 21 2 44 7 69c0.333 0.667 0.667 1.333 1 2c34.333 176.333 68.667 352.667 103 529c2 10 2 19 2 26c0 21 -8 28 -30 28s-104 -157 -129 -213c-39.667 -200 -79.333 -400 -119 -600c-75 0.333333 -150 0.666667 -225 1
c49.333 253.333 98.667 506.667 148 760c3 13 4 24 4 32c0 14 -5 20 -22 20c-24 0 -108 -98 -151 -204c-39.333 -203 -78.667 -406 -118 -609h-224c51.3333 267.333 102.667 534.667 154 802c8 42 11 72 11 97c0 30 -4 52 -8 79l231 66c3 -11 4 -24 4 -40
c0 -31 -4 -68 -4 -93c36 38 113 109 202 109c101 0 128 -86 128 -155c0 -6 -1 -13 -1 -19c58 82 138 174 229 174h8c96 0 136 -83 136 -187c0 -30 -4 -62 -10 -94c-33.333 -171 -66.667 -342 -100 -513c-1 -5 -1 -10 -1 -15c0 -42 38 -67 72 -81
c-41.667 -54 -83.333 -108 -125 -162z" />
    <glyph glyph-name="o" unicode="o" 
d="M598 247c57 52 91.865 155.689 115 283c1.087 5.983 1.968 10.006 3 16c7.757 45.041 13 87 13 125c0 94 -31 159 -123 159c-151 0 -223.313 -139.941 -263 -348c-7.056 -36.989 -11 -72 -11 -103c0 -110 45 -182 139 -182c55 1 84 14 127 50zM431 -6
c-254 0 -359 127 -359 327c0 44 5.0494 91.99 15 143c72.359 370.93 252 568 544 568c197 0 294 -69 338 -201c13 -39 18 -86 18 -136c0 -51 -5.262 -102.949 -15 -152c-56.518 -284.69 -203 -549 -539 -549h-2z" />
    <glyph glyph-name="n" unicode="n" 
d="M423 821c99 114 181 205 383 205c124 0 218 -50 218 -173c0 -17 -2 -37 -6 -57c-33.667 -172.667 -67.333 -345.333 -101 -518c-2 -8 -2 -14 -2 -21c0 -50 41 -70 85 -97c-51.667 -66.6667 -103.333 -133.333 -155 -200c-80 27 -195 89 -195 216c0 14 2 30 5 46l93 477
c5 25 8 47 8 65c0 35 -11 55 -40 55c-106 0 -267 -197 -341 -315l-99 -504h-251c45.6667 235.333 91.333 470.667 137 706c23 118 30 170 30 218c0 25 -2 48 -4 80c80.333 16 160.667 32 241 48c1 -5 2 -18 2 -35c0 -56 -6 -158 -8 -196z" />
    <glyph glyph-name="q" unicode="q" 
d="M356 531c-17.865 -90.027 -25 -158 -25 -209c0 -99 28 -131 59 -131c105 0 235 159 305 325c9.667 46.667 19.333 93.333 29 140c-28 88 -58 155 -187 155c-88 0 -142.712 -87.058 -181 -280zM985 739c-51 -264.333 -102 -528.667 -153 -793c-8 -42 -12 -77 -12 -106
c0 -75 22.629 -113.165 39 -151c3.911 -9.038 8 -16 11 -21c-70.667 -40.333 -141.333 -80.667 -212 -121c-47 69 -86 153 -86 274c0 40 4 85 14 134c12 44 29 133 41 173c-35 -31 -152 -138 -271 -138c-204 0 -279 120 -279 317c0 72 9.777 154.043 27 244
c51.335 268.126 181 460 456 460c112 0 190 -28 234 -90c12 39 25 77 39 101c74.333 -8.67 148.667 -17.33 223 -26c-23 -65 -50 -148 -66 -231c-1.667 -8.667 -3.333 -17.333 -5 -26z" />
    <glyph glyph-name="r" unicode="r" 
d="M514 750c78 120 192 270 353 270c141 0 224 -73 224 -210c0 -25 0 -62 -6 -91c-2.07 -9.986 -4 -20.001 -6 -30c-84.333 -0.667 -168.667 -1.333 -253 -2c3 13 15 51 15 81c0 22 -6 40 -27 40c-56 0 -277 -288 -367 -532l-57 -294h-252
c46.667 240.667 93.333 481.333 140 722c1 6 2 13 2 19c0 48 -37 86 -82 135c61.333 62 122.667 124 184 186c51 -49 132 -92 132 -294z" />
    <glyph glyph-name="s" unicode="s" 
d="M311 549c-60.178 32.667 -98 92 -98 173c0 18 1.969 38.006 6 59c35.724 186.052 238 248 413 248c139 0 256 -16 394 -82c-39.333 -63.333 -78.667 -126.667 -118 -190c-80 52 -216 72 -312 72c-82 0 -117.682 -22.071 -126 -61c-1.926 -9.015 -3 -16 -3 -23
c0 -17 6 -31 24 -44c213 -94 426 -132 426 -346c0 -24 -2.827 -49.033 -8 -77c-29.996 -162.179 -193 -250 -305 -278c-59 -13 -120 -20 -177 -20c-224 0 -352 104 -352 274c0 24 3 49 8 76h253c-4 -18 -5 -34 -5 -49c0 -71 43 -99 133 -99c59 0 177.691 19.74 193 108
c2.246 12.952 4 25 4 36c0 38 -16 63 -49 89c-60 44 -217.253 88.539 -301 134z" />
    <glyph glyph-name="t" unicode="t" 
d="M977 145c-65 -34 -226 -151 -433 -151c-272 0 -367 153 -367 333c0 38 4 78 12 117l9 42c19 90 33 155 70 319h-14c-28 0 -56 -4 -84 -12c8 68 15 136 23 204c26 8 71 12 104 12h15c14 70 34 171 48 241c83 -2 167 -4 250 -6c-13 -66 -33 -163 -47 -231
c109 0 420 -4 428 -4c-14 -68 -29 -136 -43 -204c-137 0 -294 2 -427 2c-38 -166 -49 -225 -72 -325c-3 -13 -5 -27 -8 -40c-7 -35 -10 -66 -10 -93c0 -106 51 -153 150 -153c158 0 238 104 266 139c3 0 130 -190 130 -190z" />
    <glyph glyph-name="u" unicode="u" 
d="M815 -17c-58 29 -103 68 -135 250c-78 -110 -178 -228 -329 -231h-9c-136 0 -296 18 -296 185c0 19 2.2467 40.952 7 64c16.8718 81.81 31.2325 156.955 50 253c38.476 196.906 74 393 74 469c0 7 0 14 -1 19c86.333 9.33 172.667 18.67 259 28v-10
c0 -100 -55 -358 -122 -712v-3c0 -65 7 -80 52 -80c124 0 338 355 363 482c20.333 105.333 40.667 210.667 61 316h251c-46 -235.667 -92 -471.333 -138 -707c-1 -4 -1 -7 -1 -11c0 -50 48 -109 92 -129c-59.333 -61 -118.667 -122 -178 -183z" />
    <glyph glyph-name="v" unicode="v" 
d="M350 1076c115 -283 144 -568 162 -825c152 143 211.038 359.043 261 565c4.629 19.082 9.052 43.99 14 69c9.096 45.981 17 94 22 128h251c0 -16 -19.83 -133.032 -31 -191c-61.093 -317.172 -222.994 -610.008 -433 -756c-81.998 -57.0032 -123 -74 -331 -74
c9 44 12 96 12 152c0 272 -89 650 -164 802c79 43.333 158 86.67 237 130z" />
    <glyph glyph-name="w" unicode="w" 
d="M133 984c88 24 175 48 263 72c8 -53 11 -104 11 -154c0 -148 -27 -285 -52 -414c-19 -97 -88 -232 -108 -269c159 111 177 156 233 244c54 85 53 272 72 372c54 0 108 1 162 1c0 0 -33 -194 -65 -359c-16 -81 -28 -129 -28 -216c0 -16 0 -34 1 -54
c134 54 207 380 252 612c5 29 8 57 8 84c0 42 -6 80 -11 110h246c2 -24 3 -48 3 -72c0 -39 -3 -79 -9 -112c-72 -370 -147 -646 -462 -856l-189 48c0 0 10 141 21 228c-49 -74 -78 -96 -264 -273c-65 22 -130 43 -195 65c79 169 128 467 128 775v19c-1 54 -2 108 -17 149z
" />
    <glyph glyph-name="x" unicode="x" 
d="M1022 839c-56.43 -88.359 -234 -249 -341 -335c73 -125 162 -283 199 -283c18 0 14 3 31 6c2.667 -75.667 5.333 -151.333 8 -227c-19 -3 -43 -6 -61 -6c-42 0 -102 20 -137 48c-63 47 -143 179 -206 297l-414 -381c-49 58.3333 -98 116.667 -147 175
c149.667 134.667 299.333 269.333 449 404c-80.667 125.667 -161.333 251.333 -242 377c67 43.667 134 87.33 201 131c72.333 -118.667 144.667 -237.333 217 -356c73 68 107.722 87.214 202 210c26.92 35.061 49 97 56 114h259c-16 -49 -39.66 -120.223 -74 -174z" />
    <glyph glyph-name="y" unicode="y" 
d="M54 -32c6 -7 44 -142 189 -142c89 0 199 201 237 295c-117 480 -172 630 -288 630c-20 0 -35 0 -45 -1c2 87.667 4 175.333 6 263h101c192 0 289 -266 386 -672c116 217 146 445 198 672h256c-12 -60 -23.74 -122.064 -36 -174
c-76.357 -323.379 -276.837 -725.129 -518 -1030c-136.907 -173.073 -229 -185 -376 -185c-170 0 -281 170 -302 176z" />
    <glyph glyph-name="z" unicode="z" 
d="M176 815c23.667 67.333 47.333 134.667 71 202c45 -5 507 -6 631 -6c60 0 86 2 134 27c37.33 -52.667 74.67 -105.333 112 -158c-39 -33 -562 -491 -730 -638c94 0 202 -42 310 -42c69 0 87 77 87 93c77.667 -13.667 155.333 -27.333 233 -41
c-22 -106 -36 -260 -296 -260c-159 0 -286 63 -408 63c-55 0 -110 -13 -165 -51c-19.667 -15.3333 -39.333 -30.6667 -59 -46c-14.2487 10.1657 -171 122 -171 122c165 192 569 540 777 726c-68 -1 -122 -3 -223 -3c-125 0 -248 3 -303 12z" />
    <glyph glyph-name="A" unicode="A" 
d="M674 504v7c0 114 -38 262 -38 394c0 32 2 63 8 93c-39 -168 -172 -373 -237 -512c63 13 183 13 267 18zM601 1325h224c49 -442 104 -877 147 -1325h-276c-8 94 -15 188 -23 281c-153 -3 -237 1 -363 -29l-48 -90c-32 -61 -60 -119 -71 -162h-260c16 61 55 143 97 223
c191 367.333 382 734.667 573 1102z" />
    <glyph glyph-name="B" unicode="B" 
d="M154 837c34.111 176.98 63 341 79 471c82 6 227 17 340 17h18c195 0 328 -71 328 -237c0 -23 -2.88 -47.02 -8 -74c-27.355 -144.119 -89 -190 -172 -231c133 -39 243 -122 243 -288c0 -27 -2.973 -56.005 -9 -87c-58.736 -302.051 -250.085 -384.323 -421 -405
c-40.019 -4.84135 -82 -8 -121 -8c-74 0 -131 5 -216 5h-38h-194c38 198 89.267 412.949 171 837zM653 1012c2.941 11.76 3 22 3 31c0 77 -70 80 -91 80h-4h-16c-39 0 -56 -2 -87 -5c-4 -35 -11.197 -72.96 -19 -114c-10.258 -53.95 -23 -112 -34 -170h38
c73 0 177 12 208 170c0.667 2.67 1.333 5.33 2 8zM528 638c-49 0 -46 -2 -119 -2h-44c-49 -242 -74 -360 -90 -438c48 -3 87 -6 125 -6c30 0 60.022 1.821 96 6c33.018 3.835 187.924 39.832 222 222c4.111 21.979 6 42 6 60c0 123 -91 158 -196 158z" />
    <glyph glyph-name="C" unicode="C" 
d="M710 1128c-115 0 -274.949 -135.82 -345 -500c-11.151 -57.971 -16 -110 -16 -157c0 -176 70 -273 154 -273h14c124 0 175 64 248 194c73.333 -45.667 146.667 -91.333 220 -137c-105 -158 -296 -258 -486 -258h-3c-111 0 -237 25 -313 119c-66 86 -99 192 -99 323
c0 60 7.0484 124.991 21 197c50.174 258.966 161.952 418.04 229 496c92.934 108.06 247 200 422 200c140 0 301 -63 358 -225c-85.33 -41.67 -170.667 -83.33 -256 -125c-26 124 -62 146 -148 146z" />
    <glyph glyph-name="D" unicode="D" 
d="M547 1127h-30c-16 0 -28 0 -46 -3c-4 -26 -9.046 -55.99 -15 -87c-12.093 -62.982 -17.853 -84.028 -31 -153c-58.349 -306.123 -118 -588 -138 -686c87 -3 39 -3 99 -3h3c40 0 183.616 2.239 280 158c27.888 45.069 53.062 135.988 64 191c17.096 85.981 24 163 24 231
c0 231 -89 352 -210 352zM20 128c11 55 94 452 156 773c5 25.333 10 50.667 15 76c25 129 45 252 53 340c83 8 129 14 228 14c295 0 403 -71 498 -265c37 -80 56 -181 56 -290c0 -63 -6.12 -129.978 -19 -196c-64.576 -330.887 -278.95 -560.558 -524 -583
c-55.988 -5.12745 -107 -7 -162 -7c-84 0 -216 7 -330 7c7 34 7 33 29 131z" />
    <glyph glyph-name="E" unicode="E" 
d="M283 1319c57 4 127 4 205 4h98h110c149 0 285 -3 359 -3h16c-13.33 -67.33 -26.67 -134.67 -40 -202h-529c-17.333 -89.67 -34.667 -179.333 -52 -269h338c-13 -67.667 -26 -135.333 -39 -203h-338c-2 -10.333 -4 -20.667 -6 -31c-40 -207 -67 -332 -82 -411
c138.667 0.667 277.333 1.333 416 2c56 0 130 27 130 27c11.333 -66.333 22.667 -132.667 34 -199c-51 -13 -96 -34 -194 -34h-682c85.333 439.667 170.667 879.333 256 1319z" />
    <glyph glyph-name="F" unicode="F" 
d="M307 0c-88.333 1 -176.667 2 -265 3c85.333 440.333 170.667 880.667 256 1321h666c102 0 144 -17 175 -34c-28.67 -67.67 -57.33 -135.33 -86 -203c-23 14 -42 27 -140 28h-70c-104 0 -141 0 -324 -1l-51 -258c120 0 78 2 200 2c90 0 153 -15 190 -33
c-23 -68.333 -46 -136.667 -69 -205c-34 17 -83 22 -128 22h-85c-30 0 -85 0 -150 -2c-24 -123 -101 -545 -119 -640z" />
    <glyph glyph-name="G" unicode="G" 
d="M1064 758c-11 -57.333 -22 -114.667 -33 -172c-87 -444 -227 -536 -414 -583c-47 -10 -112 -11 -154 -11c-293 0 -414 191 -414 450c0 63 7.8069 130.038 21 199c46.321 242.128 138 439 294 569c117 90 237 118 352 118h20c213 -5 344 -91 387 -257
c-85.33 -38.67 -170.667 -77.333 -256 -116c-13 118 -52 166 -184 166c-168 0 -299.362 -201.931 -355 -491c-13.085 -67.984 -20 -129 -20 -183c0 -156 57 -249 185 -249c172 0 232 176 270 370c-21.324 -0.333 -42.673 -1 -64 -1c-71 0 -100 -3 -197 -37
c-13.667 67 -27.333 134 -41 201c103 37 208 43 309 43c103 0 219 -10 294 -16z" />
    <glyph glyph-name="H" unicode="H" 
d="M499 1322l-105 -537c96 21 157 29 277 29h87c54 280 65 338 97 503h256c-85.33 -439 -170.667 -878 -256 -1317h-255c38.667 199.667 77.333 399.333 116 599h-32c-146 0 -209 -3 -332 -29c-68 -350 -73 -385 -109 -570h-258c85.6667 440 171.333 880 257 1320
c85.667 0.67 171.333 1.33 257 2z" />
    <glyph glyph-name="K" unicode="K" 
d="M638 742c97 -119 330 -550 354 -688c-78 -28.6667 -156 -57.3333 -234 -86c-24 111 -188 477 -293 606c0 0 -68 -62 -112 -134c-29 -148.333 -58 -296.667 -87 -445h-258c86.6667 446.667 173.333 893.333 260 1340h258c-30 -154.67 -60 -309.33 -90 -464
c131 145 518 468 562 505l162 -177c-208 -135 -448 -383 -522 -457z" />
    <glyph glyph-name="L" unicode="L" 
d="M81 -3c86.333 442.667 172.667 885.333 259 1328h254c-72.667 -372.667 -145.333 -745.333 -218 -1118h428c60 3 71 6 118 21c11.333 -65.667 22.667 -131.333 34 -197c-50 -16 -116 -34 -191 -34h-684z" />
    <glyph glyph-name="M" unicode="M" 
d="M244 1323h204c54 -114 115 -303 141 -489c89 182 216 356 323 489h216c-77 -398 -255 -1323 -255 -1323h-247c38 198.667 76 397.333 114 596c20 104 84 302 84 302c-87 -123 -194 -310 -212 -347c-50 -0.667 -100 -1.333 -150 -2c0 0 -50 268 -82 349
c0 0 -5 -189 -27 -302c-38.667 -198.667 -77.333 -397.333 -116 -596h-250c85.6667 441 171.333 882 257 1323z" />
    <glyph glyph-name="N" unicode="N" 
d="M616 0c-40 259 -117 626 -208 845c-17.333 -91.667 -34.667 -183.333 -52 -275c-57 -299 -81 -418 -111 -573h-246c86.3333 442.667 172.667 885.333 259 1328c69.667 -2.33 139.333 -4.67 209 -7c89 -188 232 -662 253 -911c14.869 122.588 21.405 249.835 45 371
c37 190 76 377 119 551c81.333 -0.33 162.67 -0.67 244 -1c-28 -115 -59.84 -267.03 -92 -433c-44.773 -231.044 -91.691 -489.869 -137 -725c-11.17 -57.967 -24 -116 -34 -170h-249z" />
    <glyph glyph-name="O" unicode="O" 
d="M709 1350c134 0 349 -51 349 -433c0 -76 -9 -165 -28 -270c-0.67 -3.667 -1.33 -7.333 -2 -11c-32 -167 -94.596 -324.285 -161 -419c-103.368 -147.439 -270 -233 -435 -233c-122 0 -262.701 41.1813 -324 143c-39.805 66.117 -57 147 -57 240
c0 65 8.1534 135.97 23 212c68.709 351.86 159.119 510.89 248 608c84.112 91.9 230 160 387 163zM471 187c137 0 260 276 296 453c1.333 5.667 2.667 11.333 4 17c14 69 29 168 29 258c0 123 -29 232 -131 232c-139 0 -277.327 -278.135 -332 -555
c-12.842 -65.031 -23 -134 -23 -196c0 -116 36 -209 157 -209z" />
    <glyph glyph-name="P" unicode="P" 
d="M816 909c5.715 28.055 8 53 8 74c0 131 -96 134 -167 134h-9c-61 0 -106 -4 -151 -5c-4.667 -23.67 -9.333 -47.33 -14 -71c-36 -187 -78 -392 -78 -392c36 -1 71 -2 104 -2c116 0 259.644 29.505 307 262zM279 0h-250c85.667 440 171.333 880 257 1320
c118 0 157 8 290 8c225 0 392.955 -13.03 481 -154c24.99 -40.01 35 -90 35 -144c0 -34 -4 -70 -11 -106c-63 -324 -219 -485 -563 -485c-48 0 -99 1 -153 3c-52 -268 -55 -283 -86 -442z" />
    <glyph glyph-name="Q" unicode="Q" 
d="M779 -183c-115 0 -261 61 -262 191c-31 -7.99999 -52 -11 -92 -11c-116 0 -215.444 42.67 -278 126c-49.3478 65.736 -72 163 -72 281c0 72 8.1393 151.973 25 238c41.341 210.933 107.772 406.22 227 531c116.775 122.21 223 158 346 158c167 0 269.81 -66.07 321 -210
c24.91 -70.03 34 -140 34 -206c0 -83 -13.85 -159.03 -26 -222c-42.472 -220.101 -131 -477 -284 -577v-16c0 -59 17 -66 91 -67h11c37 0 62 5 87 11c-14 -73.6667 -28 -147.333 -42 -221c-23 -5 -41 -6 -86 -6zM516 536c115 0 160 -59 178 -132
c20 40 35.118 134.971 67 279c1.781 8.042 2.246 14.954 4 23c12.765 58.559 23 122 23 185c0 37 -3.799 74.058 -14 110c-19.613 69.11 -68 114 -140 114c-129 0 -227.135 -150.173 -278 -409c-3.933 -20.013 -8.656 -43.071 -13 -66c-7.409 -39.103 -22 -114 -22 -170
c0 -16 1 -30 4 -42c52 67 119 108 191 108zM532 211c0 0 0.919 3.014 1 4c0.5 6 2 13 2 20c0 36 -17 84 -75 84c-32 0 -75 -11 -109 -49c5 -52 64 -72 102 -72h17c19 0 43 4 62 13z" />
    <glyph glyph-name="R" unicode="R" 
d="M708 548c54 -124 145 -275 188 -341c15 -16 56 -52 96 -63c-51.333 -62.6667 -102.667 -125.333 -154 -188c-56 9 -106 59 -132 102c-76 109 -191 376 -228 472c-35 3 -71 10 -112 28l-108 -558h-243c73.6667 378.667 147.333 757.333 221 1136c13 68 21 116 29 178
c43 4 160 15 221 15c250 0 468.074 -7.96 560 -161c24.02 -39.99 36 -95 36 -153c0 -29 -3.15 -57.971 -9 -87c-45.12 -223.767 -183 -350 -365 -380zM807 906c4.057 20.989 6 39 6 56c0 125 -103 162 -274 162c-26 0 -34 0 -63 -1c-23 -118.33 -46 -236.667 -69 -355
c59 -27 115 -42 158 -42h8c170 0 214.276 77.947 234 180z" />
    <glyph glyph-name="S" unicode="S" 
d="M292 702c-81 41 -128 135 -128 235c0 23 2.98 46.004 8 69c47.813 219.04 226 322 481 322h9c240 0 383 -46 461 -136l-180 -192c-81 102 -246 118 -316 118c-50 0 -173 -36 -186 -104c-3 -14 -4 -27 -4 -38c0 -67 44.066 -86.844 90 -106
c114.161 -47.61 183 -57 303 -118c82 -44 156 -125 156 -266c0 -28 -2.817 -57.035 -9 -90c-56.328 -300.304 -293 -405 -533 -405h-19c-295 8 -402 146 -402 326c0 34 4 69 11 105c88.667 -0.667 177.333 -1.333 266 -2c-5 -26 -8 -50 -8 -71c0 -97 54 -149 179 -149
c79 0 216.423 36.115 245 182c2.941 15.011 4 29 4 42c0 82 -52.967 128.069 -115 158c-105.943 51.118 -192 59 -313 120z" />
    <glyph glyph-name="T" unicode="T" 
d="M280 0c72.333 372.667 144.667 745.333 217 1118c-198 0 -240 -1 -316 -1c13.333 69 26.667 138 40 207c122 0 577 1 765 1c73 0 140 -9 163 -16c-33 -67.67 -66 -135.33 -99 -203c0 0 -50 12 -110 12h-183c-72.333 -372.667 -144.667 -745.333 -217 -1118h-260z" />
    <glyph glyph-name="U" unicode="U" 
d="M888 1350c82.667 -9.33 165.33 -18.67 248 -28c-17 -50 -24.36 -85.14 -33 -127c-1.86 -9.03 -3.02 -19 -5 -29c-29.29 -147.94 -51 -278 -73 -391c-4 -19.667 -8 -39.333 -12 -59c-46 -237 -94.133 -462.861 -232 -595c-101.098 -96.8978 -236 -126 -366 -131
c-255 0 -344 116 -344 325c0 43 4.1852 89.976 11 141c10.2791 76.962 32.091 200.982 59 339c34.115 174.977 75 373 112 534h258c-37 -168 -84.615 -397.077 -122 -586c-9.898 -50.02 -18.97 -98.006 -27 -141c-11.955 -64.008 -22.26 -116.99 -24 -154
c-1.175 -24.991 -3 -53 -3 -82c0 -81 16 -163 119 -166c202 9 248.643 230.877 304 518c24.282 125.945 48.174 274.966 82 448c14.072 71.99 26 121 48 184z" />
    <glyph glyph-name="V" unicode="V" 
d="M293 0c1 15 2 34 2 56c0 266 -74 1000 -120 1210c84.333 29.67 168.667 59.33 253 89c51 -257 60 -648 85 -1024c136 320 317 764 467 1017c70.67 -26.33 141.33 -52.67 212 -79c-144 -236 -540 -1065 -598 -1269h-301z" />
    <glyph glyph-name="W" unicode="W" 
d="M320 0h-241v22c0 215 109 1021 113 1268c80.667 9.67 161.333 19.33 242 29c-12 -193 -28.694 -269.05 -38 -333c-35.82 -246.166 -103 -574 -112 -670c0 0 236 600 256 672c21 0 52 -3 85 -3c39 0 82 4 114 19c-13 -218 -13 -685 -13 -685
c44 139 90.662 407.088 152 643c16.907 65.02 38 170 112 359c72.33 -12.67 144.67 -25.33 217 -38c-102 -256 -346 -1101 -414 -1283h-246c0 4.92736e-07 7 397 12 585c-92 -230 -232 -573 -239 -585z" />
    <glyph glyph-name="X" unicode="X" 
d="M985 1367c56.33 -38.67 112.67 -77.33 169 -116l-456 -594c118 -272 146 -424 261 -564c-63 -41.3333 -126 -82.6667 -189 -124c-123 150 -127 252 -231 499c-131.333 -174 -262.667 -348 -394 -522c-61.6667 44 -123.333 88 -185 132l480 615c-80 208 -150 389 -259 548
c68.333 45 136.667 90 205 135c101 -149 151 -322 220 -497c126.333 162.67 252.667 325.33 379 488z" />
    <glyph glyph-name="Y" unicode="Y" 
d="M279 18.4004c100 197.333 187 376.267 287 573.6c-57 113 -359 522 -389 630c72.333 46.67 144.667 93.33 217 140c25 -79 236 -400 296 -540c84 184.67 168 369.33 252 554l219 -96c-206 -426.667 -445 -918.934 -651 -1345.6c-63 20.9996 -156 47.9996 -231 84z" />
    <glyph glyph-name="Z" unicode="Z" 
d="M48 0c-14.6667 49.3333 -29.3333 98.6667 -44 148c272.333 323.667 544.667 647.333 817 971c-214 0 -476 -5 -590 -5l39 210c120 0 543 4 731 4c75 0 119 -13 137 -16c0 -2 -0.18 -3.96 -1 -7c-10.25 -38.25 -10.05 -145.65 -19 -179c-0.82 -3.04 -2 -6 -2 -8
c-254 -300.333 -508 -600.667 -762 -901c121 -0.333 242 -0.667 363 -1c85 0 113 5 182 26c9.667 -71.667 19.333 -143.333 29 -215c-48 -16 -119 -27 -194 -27h-679h-7z" />
    <glyph glyph-name="I" unicode="I" 
d="M314 1324c157 4 258 5 354 5c105 0 205 -1 368 -3c-14 -70.33 -28 -140.67 -42 -211c-123 0 -134 5 -229 5c-58.333 -300.333 -116.667 -600.667 -175 -901c46 0 31 1 82 1c45 0 92 -1 143 -4c-13.667 -72.333 -27.333 -144.667 -41 -217c-84 5 -146 6 -209 6
c-47 0 -96 -1 -155 -1c-74 0 -197 -7 -352 -7l42 216c86 4 124 5 181 5h52c58.667 300.333 117.333 600.667 176 901c-66 -1 -123 -1 -230 -7c11.667 70.67 23.333 141.33 35 212z" />
    <glyph glyph-name="J" unicode="J" 
d="M337 -8c-228 0 -316 153 -316 331c0 37 4 74 11 112c86.667 -0.333 173.333 -0.667 260 -1c-5 -31 -7 -58 -7 -83c0 -98 35 -147 88 -147c198 0 288 571 323 902c-49 0 -161 2 -198 2c-105 -3 -93 -12 -121 -18c-13.667 70.67 -27.333 141.33 -41 212c31 7 39 19 158 22
c145 0 338 -1 494 -1c-129 -864 -225 -1331 -651 -1331z" />
    <glyph glyph-name="zero" unicode="0" 
d="M386 581c119 129.667 238 259.333 357 389c-12 100 -19 135 -90 135c-154 0 -225.026 -290.648 -259 -474c-4.253 -22.95 -8 -50 -8 -50zM731 726c-121.333 -131.333 -242.667 -262.667 -364 -394c8 -95 26 -141 94 -141c157 0 217.956 250.651 262 486
c5.232 27.955 8 49 8 49zM695 1312c234 0 307 -172 307 -386c0 -85 -11.759 -176.047 -29 -266c-62.131 -324.164 -203 -677 -539 -677c-249 0 -327 158 -327 370c0 82 11.072 170.986 29 263c65.262 334.949 202 696 559 696z" />
    <glyph glyph-name="period" unicode="." 
d="M330 313h315c-20.333 -104.333 -40.667 -208.667 -61 -313h-315c20.333 104.333 40.667 208.667 61 313z" />
    <glyph glyph-name="comma" unicode="," 
d="M317 309c109 0.667 218 1.333 327 2c-19.333 -100 -38.667 -200 -58 -300v-3c-38 -197 -158 -366 -340 -442c-21 60.333 -42 120.667 -63 181c102 51 165 121 192 259c-37.667 -0.33333 -75.333 -0.66667 -113 -1c18.333 101.333 36.667 202.667 55 304z" />
    <glyph glyph-name="eacute" unicode="&#xe9;" 
d="M420 1221c152 48 348 160 484 268c33.667 -57.3301 67.333 -114.67 101 -172c-133 -112 -377 -223 -529 -270c-18.667 58 -37.333 116 -56 174zM379 606c25 4 60 5 98 5h58c69 0 137.034 1.94727 168 22c20.0225 12.9658 35 45 35 78c0 51 -35 107 -143 107
c-102 0 -187 -96 -216 -212zM632 1021c281 0 359 -169 359 -304c0 -39 -6.14062 -73.9512 -16 -102c-93.3301 -265.525 -506 -194 -637 -219v-13c0 -105 69 -187 157 -187c106 0 220 27 318 99l102 -180c-170 -90 -227 -125 -466 -125c-238 0 -361 147 -361 376
c0 47 4.81836 97.0361 15 150c55.0156 286.186 246 505 529 505z" />
    <glyph glyph-name="egrave" unicode="&#xe8;" 
d="M956 1225c-41.333 -58 -82.667 -116 -124 -174c-134 47 -334 158 -423 270c55.667 57.3301 111.333 114.67 167 172c94 -108 246 -220 380 -268zM379 606c25 4 60 5 98 5h58c69 0 137.034 1.94727 168 22c20.0225 12.9658 35 45 35 78c0 51 -35 107 -143 107
c-102 0 -187 -96 -216 -212zM632 1021c281 0 359 -169 359 -304c0 -39 -6.14062 -73.9512 -16 -102c-93.3301 -265.525 -506 -194 -637 -219v-13c0 -105 69 -187 157 -187c106 0 220 27 318 99l102 -180c-170 -90 -227 -125 -466 -125c-238 0 -361 147 -361 376
c0 47 4.81836 97.0361 15 150c55.0156 286.186 246 505 529 505z" />
    <glyph glyph-name="ecircumflex" unicode="&#xea;" 
d="M752 1495c107.333 -97 214.667 -194 322 -291c-56.3301 -52 -112.667 -104 -169 -156l-201 201l-258 -189l-117 138zM379 606c25 4 60 5 98 5h58c69 0 137.034 1.94727 168 22c20.0225 12.9658 35 45 35 78c0 51 -35 107 -143 107c-102 0 -187 -96 -216 -212zM632 1021
c281 0 359 -169 359 -304c0 -39 -6.14062 -73.9512 -16 -102c-93.3301 -265.525 -506 -194 -637 -219v-13c0 -105 69 -187 157 -187c106 0 220 27 318 99l102 -180c-170 -90 -227 -125 -466 -125c-238 0 -361 147 -361 376c0 47 4.81836 97.0361 15 150
c55.0156 286.186 246 505 529 505z" />
    <glyph glyph-name="edieresis" unicode="&#xeb;" 
d="M793 1424.6l282 -3c-15.667 -80 -31.333 -160 -47 -240c-93.667 1 -187.333 2 -281 3c15.333 80 30.667 160 46 240zM373 1424.6h279c-15.333 -80 -30.667 -160 -46 -240h-279c15.333 80 30.667 160 46 240zM379 606c25 4 60 5 98 5h58c69 0 137.034 1.94727 168 22
c20.0225 12.9658 35 45 35 78c0 51 -35 107 -143 107c-102 0 -187 -96 -216 -212zM632 1021c281 0 359 -169 359 -304c0 -39 -6.14062 -73.9512 -16 -102c-93.3301 -265.525 -506 -194 -637 -219v-13c0 -105 69 -187 157 -187c106 0 220 27 318 99l102 -180
c-170 -90 -227 -125 -466 -125c-238 0 -361 147 -361 376c0 47 4.81836 97.0361 15 150c55.0156 286.186 246 505 529 505z" />
    <glyph glyph-name="agrave" unicode="&#xe0;" 
d="M936 1225c-41.333 -58 -82.667 -116 -124 -174c-134 47 -334 158 -423 270c55.667 57.3301 111.333 114.67 167 172c94 -108 246 -220 380 -268zM343 513c-18 -90 -25 -155 -25 -202c0 -121 49 -122 95 -122c110 0 228 186 257 242c19.333 99.333 38.667 198.667 58 298
c-28 42 -87 90 -151 90c-66 0 -181 -40 -234 -306zM891 316c-3.3291 -16.9346 -5 -33 -5 -49c0 -71 31 -129 70 -166c-52.667 -44 -105.333 -88 -158 -132c-41 37 -98 103 -98 196c0 7 0 13 1 20c-81 -136 -196 -196 -378 -196c-135 0 -254 62 -254 313
c0 66 8.72754 146.053 27 241c75.8672 394.215 334 485 480 485c81 0 164 -31 202 -87c6.66699 28 13.333 56 20 84l230 -12c-45.6367 -232.183 -91.3721 -464.867 -137 -697z" />
    <glyph glyph-name="aacute" unicode="&#xe1;" 
d="M394 1225c152 48 348 160 484 268c33.667 -57.3301 67.333 -114.67 101 -172c-133 -112 -377 -223 -529 -270c-18.667 58 -37.333 116 -56 174zM343 513c-18 -90 -25 -155 -25 -202c0 -121 49 -122 95 -122c110 0 228 186 257 242c19.333 99.333 38.667 198.667 58 298
c-28 42 -87 90 -151 90c-66 0 -181 -40 -234 -306zM891 316c-3.3291 -16.9346 -5 -33 -5 -49c0 -71 31 -129 70 -166c-52.667 -44 -105.333 -88 -158 -132c-41 37 -98 103 -98 196c0 7 0 13 1 20c-81 -136 -196 -196 -378 -196c-135 0 -254 62 -254 313
c0 66 8.72754 146.053 27 241c75.8672 394.215 334 485 480 485c81 0 164 -31 202 -87c6.66699 28 13.333 56 20 84l230 -12c-45.6367 -232.183 -91.3721 -464.867 -137 -697z" />
    <glyph glyph-name="acircumflex" unicode="&#xe2;" 
d="M708 1498c107.333 -97 214.667 -194 322 -291c-56.3301 -52 -112.667 -104 -169 -156l-201 201l-258 -189l-117 138zM343 513c-18 -90 -25 -155 -25 -202c0 -121 49 -122 95 -122c110 0 228 186 257 242c19.333 99.333 38.667 198.667 58 298c-28 42 -87 90 -151 90
c-66 0 -181 -40 -234 -306zM891 316c-3.3291 -16.9346 -5 -33 -5 -49c0 -71 31 -129 70 -166c-52.667 -44 -105.333 -88 -158 -132c-41 37 -98 103 -98 196c0 7 0 13 1 20c-81 -136 -196 -196 -378 -196c-135 0 -254 62 -254 313c0 66 8.72754 146.053 27 241
c75.8672 394.215 334 485 480 485c81 0 164 -31 202 -87c6.66699 28 13.333 56 20 84l230 -12c-45.6367 -232.183 -91.3721 -464.867 -137 -697z" />
    <glyph glyph-name="atilde" unicode="&#xe3;" 
d="M553 1415c216 0 209 -132 299 -132c50 0 87 31 106 100c55.3301 -18 110.67 -36 166 -54c-40 -96 -123 -224 -285 -224c-198 0 -193 130 -294 130c-42 0 -87 -37 -108 -100c-56.333 26 -112.667 52 -169 78c51 93 144 202 285 202zM343 513c-18 -90 -25 -155 -25 -202
c0 -121 49 -122 95 -122c110 0 228 186 257 242c19.333 99.333 38.667 198.667 58 298c-28 42 -87 90 -151 90c-66 0 -181 -40 -234 -306zM891 316c-3.3291 -16.9346 -5 -33 -5 -49c0 -71 31 -129 70 -166c-52.667 -44 -105.333 -88 -158 -132c-41 37 -98 103 -98 196
c0 7 0 13 1 20c-81 -136 -196 -196 -378 -196c-135 0 -254 62 -254 313c0 66 8.72754 146.053 27 241c75.8672 394.215 334 485 480 485c81 0 164 -31 202 -87c6.66699 28 13.333 56 20 84l230 -12c-45.6367 -232.183 -91.3721 -464.867 -137 -697z" />
    <glyph glyph-name="adieresis" unicode="&#xe4;" 
d="M794 1425l282 -3c-15.667 -80 -31.333 -160 -47 -240c-93.667 1 -187.333 2 -281 3c15.333 80 30.667 160 46 240zM374 1425h279c-15.333 -80 -30.667 -160 -46 -240h-279c15.333 80 30.667 160 46 240zM343 513c-18 -90 -25 -155 -25 -202c0 -121 49 -122 95 -122
c110 0 228 186 257 242c19.333 99.333 38.667 198.667 58 298c-28 42 -87 90 -151 90c-66 0 -181 -40 -234 -306zM891 316c-3.3291 -16.9346 -5 -33 -5 -49c0 -71 31 -129 70 -166c-52.667 -44 -105.333 -88 -158 -132c-41 37 -98 103 -98 196c0 7 0 13 1 20
c-81 -136 -196 -196 -378 -196c-135 0 -254 62 -254 313c0 66 8.72754 146.053 27 241c75.8672 394.215 334 485 480 485c81 0 164 -31 202 -87c6.66699 28 13.333 56 20 84l230 -12c-45.6367 -232.183 -91.3721 -464.867 -137 -697z" />
    <glyph glyph-name="aring" unicode="&#xe5;" 
d="M720 1348c-53 0 -90.0498 -31.6504 -98 -62c-0.797852 -3.04004 -1 -5 -1 -8c0 -28 28 -55 75 -55c52 0 90.0498 32.6504 98 63c0.797852 3.04004 1 6 1 9c0 28 -27 53 -75 53zM433 1286c23.0957 115.98 168 204 316 204c135 0 238 -73 238 -174
c0 -10 -1.04004 -19.9902 -3 -30c-22.4814 -114.9 -153 -195 -313 -195c-140 0 -241 68 -241 166c0 9 1.00781 19 3 29zM343 513c-18 -90 -25 -155 -25 -202c0 -121 49 -122 95 -122c110 0 228 186 257 242c19.333 99.333 38.667 198.667 58 298c-28 42 -87 90 -151 90
c-66 0 -181 -40 -234 -306zM891 316c-3.3291 -16.9346 -5 -33 -5 -49c0 -71 31 -129 70 -166c-52.667 -44 -105.333 -88 -158 -132c-41 37 -98 103 -98 196c0 7 0 13 1 20c-81 -136 -196 -196 -378 -196c-135 0 -254 62 -254 313c0 66 8.72754 146.053 27 241
c75.8672 394.215 334 485 480 485c81 0 164 -31 202 -87c6.66699 28 13.333 56 20 84l230 -12c-45.6367 -232.183 -91.3721 -464.867 -137 -697z" />
    <glyph glyph-name="ae" unicode="&#xe6;" 
d="M704 675c-1.333 -7 -2.667 -14 -4 -21c38 0 100 0 145 6c3 23 5 44 5 61c0 61 -20 87 -66 87c-40 0 -63 -48 -80 -133zM244 322c-6.162 -31.968 -9 -59 -9 -81c0 -53 16 -79 43 -79c90 0 113 137 129 165c9.333 49 18.667 98 28 147c-38 25 -43 34 -97 34
c-33 0 -74.513 -84.904 -94 -186zM647 0c-158 0 -181 75 -198 97c-37 -34 -108 -93 -211 -93c-63 0 -125.09 14.8898 -172 53c-49.0936 39.8842 -67 99 -67 165c0 28 3.21371 57.959 9 87c33.2235 166.747 132 352 336 352c77 0 86 -16 121 -32c7 34 12 67 12 94
c0 51 -19 85 -88 85h-9c-53 0 -75 -20 -121 -106c-60.667 27.333 -121.333 54.667 -182 82c106 186 228 234 346 234c56 0 101 -3 153 -50c16 -16 31 -40 39 -59c22 26 97 109 199 109c163 0 230 -147 230 -323c0 -41 -3 -83 -10 -125
c-7.67 -38.667 -15.33 -77.333 -23 -116c-99 -4 -237 -7 -319 -7h-32c-12 -57.667 -24 -115.333 -36 -173c8 -42 14 -66 53 -66c75 0 95 36 110 82c58.667 -24 117.333 -48 176 -72c0 0 -91 -218 -316 -218z" />
    <glyph glyph-name="colon" unicode=":" 
d="M462.946 1012h315c-20.333 -104.333 -40.667 -208.667 -61 -313h-315c20.333 104.333 40.667 208.667 61 313zM327 315h315c-20.333 -104.333 -40.667 -208.667 -61 -313h-315c20.333 104.333 40.667 208.667 61 313z" />
    <glyph glyph-name="semicolon" unicode=";" 
d="M448.67 1012h315c-20.333 -104.333 -40.667 -208.667 -61 -313h-315c20.333 104.333 40.667 208.667 61 313zM309 309c109 0.666992 218 1.33301 327 2c-19.333 -100 -38.667 -200 -58 -300v-3c-38 -197 -158 -366 -340 -442c-21 60.333 -42 120.667 -63 181
c102 51 165 121 192 259c-37.667 -0.333008 -75.333 -0.666992 -113 -1c18.333 101.333 36.667 202.667 55 304z" />
    <glyph glyph-name="exclam" unicode="!" 
d="M874 1376c-64.333 -304 -128.667 -608 -193 -912c-94.333 -0.667 -188.667 -1.333 -283 -2c53.667 304.667 107.333 609.33 161 914h315zM327 270h350c-17.333 -90 -34.667 -180 -52 -270h-350c17.333 90 34.667 180 52 270z" />
    <glyph glyph-name="space" unicode=" " 
 />
    <glyph glyph-name="quotesingle" unicode="'" 
d="M760 1469c105 -13.33 210 -26.67 315 -40c-94 -353 -355 -585 -543 -687c-32.667 57.667 -65.333 115.333 -98 173c127 118 256 307 326 554z" />
    <glyph glyph-name="Agrave" unicode="&#xc0;" 
d="M1005 1494.55c-41.333 -58 -82.667 -116 -124 -174c-134 47 -334 158 -423 270c55.667 57.3301 111.333 114.67 167 172c94 -108 246 -220 380 -268zM674 504v7c0 114 -38 262 -38 394c0 32 2 63 8 93c-39 -168 -172 -373 -237 -512c63 13 183 13 267 18zM601 1325h224
c49 -442 104 -877 147 -1325h-276c-8 94 -15 188 -23 281c-153 -3 -237 1 -363 -29l-48 -90c-32 -61 -60 -119 -71 -162h-260c16 61 55 143 97 223c191 367.333 382 734.667 573 1102z" />
    <glyph glyph-name="Aacute" unicode="&#xc1;" 
d="M402 1491c152 48 348 160 484 268c33.667 -57.3301 67.333 -114.67 101 -172c-133 -112 -377 -223 -529 -270c-18.667 58 -37.333 116 -56 174zM674 504v7c0 114 -38 262 -38 394c0 32 2 63 8 93c-39 -168 -172 -373 -237 -512c63 13 183 13 267 18zM601 1325h224
c49 -442 104 -877 147 -1325h-276c-8 94 -15 188 -23 281c-153 -3 -237 1 -363 -29l-48 -90c-32 -61 -60 -119 -71 -162h-260c16 61 55 143 97 223c191 367.333 382 734.667 573 1102z" />
    <glyph glyph-name="Acircumflex" unicode="&#xc2;" 
d="M760 1747c107.333 -97 214.667 -194 322 -291c-56.3301 -52 -112.667 -104 -169 -156l-201 201l-258 -189l-117 138zM674 504v7c0 114 -38 262 -38 394c0 32 2 63 8 93c-39 -168 -172 -373 -237 -512c63 13 183 13 267 18zM601 1325h224c49 -442 104 -877 147 -1325h-276
c-8 94 -15 188 -23 281c-153 -3 -237 1 -363 -29l-48 -90c-32 -61 -60 -119 -71 -162h-260c16 61 55 143 97 223c191 367.333 382 734.667 573 1102z" />
    <glyph glyph-name="Atilde" unicode="&#xc3;" 
d="M620 1634c216 0 209 -132 299 -132c50 0 87 31 106 100c55.3301 -18 110.67 -36 166 -54c-40 -96 -123 -224 -285 -224c-198 0 -193 130 -294 130c-42 0 -87 -37 -108 -100c-56.333 26 -112.667 52 -169 78c51 93 144 202 285 202zM674 504v7c0 114 -38 262 -38 394
c0 32 2 63 8 93c-39 -168 -172 -373 -237 -512c63 13 183 13 267 18zM601 1325h224c49 -442 104 -877 147 -1325h-276c-8 94 -15 188 -23 281c-153 -3 -237 1 -363 -29l-48 -90c-32 -61 -60 -119 -71 -162h-260c16 61 55 143 97 223c191 367.333 382 734.667 573 1102z" />
    <glyph glyph-name="Adieresis" unicode="&#xc4;" 
d="M837 1651l282 -3c-15.667 -80 -31.333 -160 -47 -240c-93.667 1 -187.333 2 -281 3c15.333 80 30.667 160 46 240zM417 1651h279c-15.333 -80 -30.667 -160 -46 -240h-279c15.333 80 30.667 160 46 240zM674 504v7c0 114 -38 262 -38 394c0 32 2 63 8 93
c-39 -168 -172 -373 -237 -512c63 13 183 13 267 18zM601 1325h224c49 -442 104 -877 147 -1325h-276c-8 94 -15 188 -23 281c-153 -3 -237 1 -363 -29l-48 -90c-32 -61 -60 -119 -71 -162h-260c16 61 55 143 97 223c191 367.333 382 734.667 573 1102z" />
    <glyph glyph-name="Aring" unicode="&#xc5;" 
d="M746 1516c-52 0 -90.05 -31.65 -98 -62c-0.798 -3.04 -1 -6 -1 -9c0 -28 27 -54 74 -54c52 0 91.05 32.65 99 63c0.798 3.04 1 6 1 9c0 28 -26 53 -75 53zM674 504v7c0 114 -38 262 -38 394c0 32 2 63 8 93c-39 -168 -172 -373 -237 -512c63 13 183 13 267 18zM460 1454
c23.096 115.98 167 204 315 204c135 0 238 -73 238 -174c0 -10 -1.01 -20 -3 -30c-16.096 -80.98 -84 -145 -180 -175c39.333 -345 78.667 -690 118 -1035c5 -50 11 -102 11 -153c0 -31 -2 -61 -8 -91h-276c7 37 10 73 10 107c0 20 -1 40 -3 60l-9 114
c-153 -3 -237 1 -363 -29l-48 -90c-32 -61 -61 -119 -71 -162h-260c16 61 55 143 97 223c182.667 351.667 365.333 703.333 548 1055c-73 27 -119 79 -119 146c0 10 1.008 20 3 30z" />
    <glyph glyph-name="igrave" unicode="&#xec;" 
d="M882 1267c-41.333 -58 -82.667 -116 -124 -174c-134 47 -334 158 -423 270c55.667 57.3301 111.333 114.67 167 172c94 -108 246 -220 380 -268zM481 1039c83.333 -8.66992 166.667 -17.3301 250 -26c-53 -273 -133 -687 -133 -687c-3 -17 -5 -34 -5 -51
c0 -49 18 -93 86 -93c93 0 160 33 231 91c20 -63.333 40 -126.667 60 -190c-100 -71 -256 -101 -380 -101c-192 0 -269 79 -269 203c0 23 3 47 8 73c31 159.667 62 319.333 93 479c0 0 -34 -34 -134 -82c-37 61.333 -74 122.667 -111 184c124 40 249 98 304 200z" />
    <glyph glyph-name="iacute" unicode="&#xed;" 
d="M414 1231c152 48 348 160 484 268c33.667 -57.3301 67.333 -114.67 101 -172c-133 -112 -377 -223 -529 -270c-18.667 58 -37.333 116 -56 174zM481 1039c83.333 -8.66992 166.667 -17.3301 250 -26c-53 -273 -133 -687 -133 -687c-3 -17 -5 -34 -5 -51
c0 -49 18 -93 86 -93c93 0 160 33 231 91c20 -63.333 40 -126.667 60 -190c-100 -71 -256 -101 -380 -101c-192 0 -269 79 -269 203c0 23 3 47 8 73c31 159.667 62 319.333 93 479c0 0 -34 -34 -134 -82c-37 61.333 -74 122.667 -111 184c124 40 249 98 304 200z" />
    <glyph glyph-name="icircumflex" unicode="&#xee;" 
d="M719 1501c107.333 -97 214.667 -194 322 -291c-56.3301 -52 -112.667 -104 -169 -156l-201 201l-258 -189l-117 138zM481 1039c83.333 -8.66992 166.667 -17.3301 250 -26c-53 -273 -133 -687 -133 -687c-3 -17 -5 -34 -5 -51c0 -49 18 -93 86 -93c93 0 160 33 231 91
c20 -63.333 40 -126.667 60 -190c-100 -71 -256 -101 -380 -101c-192 0 -269 79 -269 203c0 23 3 47 8 73c31 159.667 62 319.333 93 479c0 0 -34 -34 -134 -82c-37 61.333 -74 122.667 -111 184c124 40 249 98 304 200z" />
    <glyph glyph-name="idieresis" unicode="&#xef;" 
d="M737 1422.6l282 -3c-15.667 -80 -31.333 -160 -47 -240c-93.667 1 -187.333 2 -281 3c15.333 80 30.667 160 46 240zM317 1422.6h279c-15.333 -80 -30.667 -160 -46 -240h-279c15.333 80 30.667 160 46 240zM481 1039c83.333 -8.66992 166.667 -17.3301 250 -26
c-53 -273 -133 -687 -133 -687c-3 -17 -5 -34 -5 -51c0 -49 18 -93 86 -93c93 0 160 33 231 91c20 -63.333 40 -126.667 60 -190c-100 -71 -256 -101 -380 -101c-192 0 -269 79 -269 203c0 23 3 47 8 73c31 159.667 62 319.333 93 479c0 0 -34 -34 -134 -82
c-37 61.333 -74 122.667 -111 184c124 40 249 98 304 200z" />
    <glyph glyph-name="ccedilla" unicode="&#xe7;" 
d="M355 528c-9.805 -49.038 -14 -91 -14 -126c0 -195 126 -198 166 -198h12c100 0 166 65 230 146c66.667 -44.667 133.333 -89.333 200 -134c-83 -129 -204 -201 -374 -219c-4 -21 -10 -48 -10 -50c84 -4 152 -49 152 -137c0 -12 -1.148 -24.971 -4 -39
c-26.366 -129.707 -153 -202 -311 -202c-66 0 -154 18 -203 54c29.333 49 58.667 98 88 147c30 -18 73 -29 124 -29c36 0 72 11 82 49c0.333 0.667 0.667 1.333 1 2c1 3 1 7 1 10c0 25 -20 46 -62 46c-48 0 -81 -3 -111 -13c10.667 55.333 21.333 110.667 32 166
c-64 9 -126 30 -174 72c-73 67 -103 157 -103 269c0 56 7.9972 118.001 21 185c65.986 340.003 274 491 589 491c95 0 188.074 -18.903 243 -61c52.07 -39.908 87 -99 99 -151l-240 -102c-3 38 -21 103 -161 103c-147 0 -244.432 -136.116 -273 -279z" />
    <glyph glyph-name="AE" unicode="&#xc6;" 
d="M939 32c-52 -25 -119 -37 -194 -37h-342c19 155 32 272 49 424c-18 2 -32 3 -46 3c-28 0 -51 -4 -87 -12c-53.333 -136.667 -106.667 -273.333 -160 -410c-75 15 -150 30 -225 45c170 386 342 849 520 1278c48.333 -1 96.667 -2 145 -3c43 2 97 2 157 2h125h260
c-13.33 -68.67 -26.67 -137.33 -40 -206h-17c-83 0 -71 -2 -194 -2h-142c-9.667 -89.33 -19.333 -178.667 -29 -268c51 1 41 4 126 4h106c-13.333 -69.333 -26.667 -138.667 -40 -208h-106c-82 0 -65 -3 -110 -4c-12.333 -145 -24.667 -290 -37 -435h157c61 0 104 25 104 25
c6.667 -65.333 13.333 -130.667 20 -196zM477 631c13.333 122 26.667 244 40 366c-47.333 -124 -94.667 -248 -142 -372c30 3 51 6 102 6z" />
    <glyph glyph-name="Ccedilla" unicode="&#xc7;" 
d="M710 1128c-115 0 -274.949 -135.82 -345 -500c-11.151 -57.971 -16 -110 -16 -157c0 -176 70 -273 154 -273h14c124 0 175 64 248 194c73.333 -45.667 146.667 -91.333 220 -137c-84 -127 -223 -217 -373 -247c-4 -15 -14 -69 -15 -72c84 -4 151 -49 151 -137
c0 -12 -1.148 -24.971 -4 -39c-26.366 -129.707 -152 -202 -310 -202c-66 0 -154 18 -203 54c29.333 49 58.667 98 88 147c30 -18 73 -29 124 -29c36 0 72 11 82 49v2c1 3 1 7 1 10c0 25 -20 46 -62 46c-48 0 -81 -3 -111 -13c11.667 60.667 23.333 121.333 35 182
c-78 14 -153 46 -205 110c-66 86 -99 192 -99 323c0 60 7.0484 124.991 21 197c50.174 258.966 161.952 418.04 229 496c92.934 108.06 247 200 422 200c140 0 301 -63 358 -225c-85.33 -41.67 -170.667 -83.33 -256 -125c-26 124 -62 146 -148 146z" />
    <glyph glyph-name="Egrave" unicode="&#xc8;" 
d="M1008 1501c-41.333 -58 -82.667 -116 -124 -174c-134 47 -334 158 -423 270c55.667 57.3301 111.333 114.67 167 172c94 -108 246 -220 380 -268zM283 1319c57 4 127 4 205 4h98h110c149 0 285 -3 359 -3h16c-13.3301 -67.3301 -26.6699 -134.67 -40 -202h-529
c-17.333 -89.6699 -34.667 -179.333 -52 -269h338c-13 -67.667 -26 -135.333 -39 -203h-338c-2 -10.333 -4 -20.667 -6 -31c-40 -207 -67 -332 -82 -411c138.667 0.666992 277.333 1.33301 416 2c56 0 130 27 130 27c11.333 -66.333 22.667 -132.667 34 -199
c-51 -13 -96 -34 -194 -34h-682c85.333 439.667 170.667 879.333 256 1319z" />
    <glyph glyph-name="Eacute" unicode="&#xc9;" 
d="M383 1499c152 48 348 160 484 268c33.667 -57.3301 67.333 -114.67 101 -172c-133 -112 -377 -223 -529 -270c-18.667 58 -37.333 116 -56 174zM283 1319c57 4 127 4 205 4h98h110c149 0 285 -3 359 -3h16c-13.3301 -67.3301 -26.6699 -134.67 -40 -202h-529
c-17.333 -89.6699 -34.667 -179.333 -52 -269h338c-13 -67.667 -26 -135.333 -39 -203h-338c-2 -10.333 -4 -20.667 -6 -31c-40 -207 -67 -332 -82 -411c138.667 0.666992 277.333 1.33301 416 2c56 0 130 27 130 27c11.333 -66.333 22.667 -132.667 34 -199
c-51 -13 -96 -34 -194 -34h-682c85.333 439.667 170.667 879.333 256 1319z" />
    <glyph glyph-name="Ecircumflex" unicode="&#xca;" 
d="M753 1783c107.333 -97 214.667 -194 322 -291c-56.3301 -52 -112.667 -104 -169 -156l-201 201l-258 -189l-117 138zM283 1319c57 4 127 4 205 4h98h110c149 0 285 -3 359 -3h16c-13.3301 -67.3301 -26.6699 -134.67 -40 -202h-529
c-17.333 -89.6699 -34.667 -179.333 -52 -269h338c-13 -67.667 -26 -135.333 -39 -203h-338c-2 -10.333 -4 -20.667 -6 -31c-40 -207 -67 -332 -82 -411c138.667 0.666992 277.333 1.33301 416 2c56 0 130 27 130 27c11.333 -66.333 22.667 -132.667 34 -199
c-51 -13 -96 -34 -194 -34h-682c85.333 439.667 170.667 879.333 256 1319z" />
    <glyph glyph-name="Edieresis" unicode="&#xcb;" 
d="M815 1696l282 -3c-15.667 -80 -31.333 -160 -47 -240c-93.667 1 -187.333 2 -281 3c15.333 80 30.667 160 46 240zM395 1696h279c-15.333 -80 -30.667 -160 -46 -240h-279c15.333 80 30.667 160 46 240zM283 1319c57 4 127 4 205 4h98h110c149 0 285 -3 359 -3h16
c-13.3301 -67.3301 -26.6699 -134.67 -40 -202h-529c-17.333 -89.6699 -34.667 -179.333 -52 -269h338c-13 -67.667 -26 -135.333 -39 -203h-338c-2 -10.333 -4 -20.667 -6 -31c-40 -207 -67 -332 -82 -411c138.667 0.666992 277.333 1.33301 416 2c56 0 130 27 130 27
c11.333 -66.333 22.667 -132.667 34 -199c-51 -13 -96 -34 -194 -34h-682c85.333 439.667 170.667 879.333 256 1319z" />
    <glyph glyph-name="Igrave" unicode="&#xcc;" 
d="M986 1513c-41.333 -58 -82.667 -116 -124 -174c-134 47 -334 158 -423 270c55.667 57.3301 111.333 114.67 167 172c94 -108 246 -220 380 -268zM314 1324c157 4 258 5 354 5c105 0 205 -1 368 -3c-14 -70.3301 -28 -140.67 -42 -211c-123 0 -134 5 -229 5
c-58.333 -300.333 -116.667 -600.667 -175 -901c46 0 31 1 82 1c45 0 92 -1 143 -4c-13.667 -72.333 -27.333 -144.667 -41 -217c-84 5 -146 6 -209 6c-47 0 -96 -1 -155 -1c-74 0 -197 -7 -352 -7l42 216c86 4 124 5 181 5h52c58.667 300.333 117.333 600.667 176 901
c-66 -1 -123 -1 -230 -7c11.667 70.6699 23.333 141.33 35 212z" />
    <glyph glyph-name="Iacute" unicode="&#xcd;" 
d="M402 1502c152 48 348 160 484 268c33.667 -57.3301 67.333 -114.67 101 -172c-133 -112 -377 -223 -529 -270c-18.667 58 -37.333 116 -56 174zM314 1324c157 4 258 5 354 5c105 0 205 -1 368 -3c-14 -70.3301 -28 -140.67 -42 -211c-123 0 -134 5 -229 5
c-58.333 -300.333 -116.667 -600.667 -175 -901c46 0 31 1 82 1c45 0 92 -1 143 -4c-13.667 -72.333 -27.333 -144.667 -41 -217c-84 5 -146 6 -209 6c-47 0 -96 -1 -155 -1c-74 0 -197 -7 -352 -7l42 216c86 4 124 5 181 5h52c58.667 300.333 117.333 600.667 176 901
c-66 -1 -123 -1 -230 -7c11.667 70.6699 23.333 141.33 35 212z" />
    <glyph glyph-name="Icircumflex" unicode="&#xce;" 
d="M746 1780c107.333 -97 214.667 -194 322 -291c-56.3301 -52 -112.667 -104 -169 -156l-201 201l-258 -189l-117 138zM314 1324c157 4 258 5 354 5c105 0 205 -1 368 -3c-14 -70.3301 -28 -140.67 -42 -211c-123 0 -134 5 -229 5
c-58.333 -300.333 -116.667 -600.667 -175 -901c46 0 31 1 82 1c45 0 92 -1 143 -4c-13.667 -72.333 -27.333 -144.667 -41 -217c-84 5 -146 6 -209 6c-47 0 -96 -1 -155 -1c-74 0 -197 -7 -352 -7l42 216c86 4 124 5 181 5h52c58.667 300.333 117.333 600.667 176 901
c-66 -1 -123 -1 -230 -7c11.667 70.6699 23.333 141.33 35 212z" />
    <glyph glyph-name="Idieresis" unicode="&#xcf;" 
d="M819 1690l282 -3c-15.667 -80 -31.333 -160 -47 -240c-93.667 1 -187.333 2 -281 3c15.333 80 30.667 160 46 240zM399 1690h279c-15.333 -80 -30.667 -160 -46 -240h-279c15.333 80 30.667 160 46 240zM314 1324c157 4 258 5 354 5c105 0 205 -1 368 -3
c-14 -70.3301 -28 -140.67 -42 -211c-123 0 -134 5 -229 5c-58.333 -300.333 -116.667 -600.667 -175 -901c46 0 31 1 82 1c45 0 92 -1 143 -4c-13.667 -72.333 -27.333 -144.667 -41 -217c-84 5 -146 6 -209 6c-47 0 -96 -1 -155 -1c-74 0 -197 -7 -352 -7l42 216
c86 4 124 5 181 5h52c58.667 300.333 117.333 600.667 176 901c-66 -1 -123 -1 -230 -7c11.667 70.6699 23.333 141.33 35 212z" />
    <glyph glyph-name="quotedbl" unicode="&#x22;" 
d="M391 1359c6.904 35.02 10 67 12 100c103.333 7 206.667 14 310 21c-2 -41 -4.835 -76.03 -13 -119c-50.966 -268.19 -130 -450 -244 -582c-71.667 32.333 -143.333 64.667 -215 97c54 63 108.423 272.12 150 483zM825 1357c6.904 35.02 9 67 11 100
c103.333 7 206.67 14 310 21c-2 -41 -4.83 -76.03 -13 -119c-50.97 -268.19 -129 -450 -243 -582c-71.667 32.333 -143.333 64.667 -215 97c54 63 108.423 272.12 150 483z" />
    <glyph glyph-name="numbersign" unicode="#" 
d="M515 782c-23.333 -74.667 -46.667 -149.333 -70 -224c50.667 -0.333 101.333 -0.667 152 -1c20.333 73.667 40.667 147.333 61 221c-47.667 1.333 -95.333 2.667 -143 4zM289 -19c-79 1.3333 -158 2.6667 -237 4c29 113 56 206 107 373c-53 -1 -98 -10 -128 -19
c-3.6667 60.667 -7.3333 121.333 -11 182c60 20 138 29 205 34c31 80 45 144 69 223c-6 0.333 -12 0.667 -18 1c-66 -4 -116 -9 -154 -22c-6 61.333 -12 122.667 -18 184c70 25 154 29 239 34c58 184 65 214 101 359c29 0 142 -2 180 -2c19 0 35 0 49 -1
c-31 -121 -53 -209 -96 -353c45 -1.333 90 -2.667 135 -4c51 163 74 229 116 348c76 0.33 152 0.67 228 1c-49 -121 -61 -187 -111 -345h122c-12.67 -66 -25.33 -132 -38 -198c-46.667 1.333 -93.333 2.667 -140 4c-22.667 -75.667 -45.333 -151.333 -68 -227
c54 0.333 108 0.667 162 1c-14 -65.333 -28 -130.667 -42 -196l-183 3c-60 -197 -84 -267 -117 -388c-77 -0.6667 -154 -1.3333 -231 -2c33 112 65 210 119 386c-45.333 -0.333 -90.667 -0.667 -136 -1c-44 -150 -104 -379 -104 -379z" />
    <glyph glyph-name="dollar" unicode="$" 
d="M300 703c-80.678 37.676 -131 99 -131 201c0 23 2.907 48.018 8 75c34.373 182.12 218 278 412 287c9.333 61.67 18.667 123.33 28 185c82 -4.67 164 -9.33 246 -14c-18.667 -58 -37.333 -116 -56 -174c137 -15 243 -88 273 -210l-240 -90v8c0 54 -37 73 -87 81
c-20.667 -83.333 -41.333 -166.667 -62 -250c56 -20 87 -32 133 -54c81 -41 156 -115 156 -246c0 -24 -2.765 -50.046 -8 -78c-46.889 -250.377 -244 -356 -471 -360l-39 -183l-231 9c18.667 61 37.333 122 56 183c-182 29 -247 147 -247 281c0 31 4 62 10 94
c82.333 0.333 164.667 0.667 247 1c-5 -15 -9 -29 -11 -41s-3 -23 -3 -33c0 -50 24 -83 62 -92c31 120.333 62 240.667 93 361c-38 11 -93.83 38.373 -138 59zM546 1063c-59 0 -103.27 -43.17 -114 -93c-2.808 -13.039 -4 -24 -4 -35c0 -40 19 -65 66 -78
c17.333 68.667 34.667 137.333 52 206zM550 262c91 13 150.453 57.915 171 165c3.068 15.987 5 31 5 43c0 55 -31 77 -95 108c-27 -105.333 -54 -210.667 -81 -316z" />
    <glyph glyph-name="oe" unicode="&#x153;" 
d="M963 218c0 0 -127 -218 -330 -218c-92 0 -161 40 -203 95c-30 -32 -95 -95 -169 -95c-56 0 -123.881 5.08797 -187 91c-41.9205 57.058 -54 133 -54 203c0 66 10.7906 127.041 18 165c8.7455 46.047 25 126 45 176c45 123 158 382 367 382c79 0 111.5 -27.5 146 -63
c8.868 -9.125 15 -17 19 -23c30 37 84 87 199 87c163 0 230 -147 230 -323c0 -41 -3 -83 -10 -125c-7.67 -38.667 -15.33 -77.333 -23 -116c-99 -4 -237 -7 -319 -7h-32c-12 -57.667 -24 -115.333 -36 -173c8 -42 14 -66 53 -66c75 0 95 36 110 82
c58.667 -24 117.333 -48 176 -72zM704 675c-1.333 -7 -2.667 -14 -4 -21c38 0 100 0 145 6c4 26 6 48 6 67c0 56 -20 81 -78 81c-40 0 -52 -48 -69 -133zM295 208c52 0 95 71 106 130l72 360c1 7 4 22 4 39c0 34 -10 75 -58 75c-28 0 -106 -125 -150 -338l-3 -18
c-7 -38 -13 -87 -13 -131c0 -63 11 -117 42 -117z" />
    <glyph glyph-name="bracketleft" unicode="[" 
d="M1057 1483c-4 -68.67 -8 -137.33 -12 -206c-83 -8 -158 -8 -292 -12c-85.667 -440 -171.333 -880 -257 -1320c78 3 162 3 177 3h10c50 0 102 -5 112 -8c-11.333 -69.333 -22.667 -138.667 -34 -208c-24 3 -63 9 -134 9c-59 0 -340 -2 -433 -2
c35 178 53.483 260.909 88 441c17.241 89.953 39.626 211.073 74 390c33.633 175.07 66 351 91 482c27.333 140.33 54.667 280.67 82 421c93 0 372 4 423 4c73 3 82 4 105 6z" />
    <glyph glyph-name="bracketright" unicode="]" 
d="M412 1483c23 -2 32 -3 103 -6c51 0 329 -4 422 -4c-27.333 -140.33 -54.667 -280.67 -82 -421c-25 -131 -60.425 -307.116 -95 -482c-35.411 -179.114 -60.759 -300.047 -78 -390c-34.517 -180.091 -49 -263 -84 -441c-93 0 -373 2 -432 2c-71 0 -112 -6 -138 -9
c15.3333 69.333 30.6667 138.667 46 208c12 3 66 8 116 8h10c15 0 99 0 175 -3l258 1320c-132 4 -210 4 -289 12c22.667 68.67 45.333 137.33 68 206z" />
    <glyph glyph-name="parenleft" unicode="(" 
d="M1061 1250h-7c-263 0 -448.5 -182.72 -535 -634c-16.282 -84.945 -24 -161 -24 -227c0 -280 136 -400 321 -401c-16.667 -83.3333 -33.333 -166.667 -50 -250c-301 3 -545 185 -545 606c0 80 8.988 170.002 28 268c118.926 613.01 423 859 857 872z" />
    <glyph glyph-name="parenright" unicode=")" 
d="M314 1250l45 234c348 -11 552 -175 552 -566c0 -90 -10.92 -192.016 -33 -306c-118.569 -612.083 -496 -871 -857 -874c16 83.333 32 166.667 48 250c229 1 454.171 185.164 541 628c19.811 101.037 29 188 29 263c0 260 -115 371 -319 371h-6z" />
    <glyph glyph-name="hyphen" unicode="-" 
d="M134 654c45 2 96 3 146 3c100 0 200 -3 268 -3h119c82 0 234 -1 341 -2h18c-16 -81.667 -32 -163.333 -48 -245h-18c-134 3 -336 3 -461 3c-43 0 -134 3 -234 3c-57 0 -116 -1 -172 -4c7.667 40.667 15.333 81.333 23 122z" />
    <glyph glyph-name="plus" unicode="+" 
d="M105 616c49 9 80 10 145 10h39h160c25.333 130.333 50.667 260.667 76 391c82 0.33 164 0.67 246 1c-26 -130.333 -52 -260.667 -78 -391c126 0 179 -2 241 -2h82l-45 -234h-14c-6 0 -95 0 -304 3c-25.333 -131.333 -50.667 -262.667 -76 -394h-252
c25.333 130.333 50.667 260.667 76 391h-89c-133 0 -192 -1 -251 -9c14.6667 78 29.3333 156 44 234z" />
    <glyph glyph-name="less" unicode="&#x3c;" 
d="M865 141c-60.667 -63.3333 -121.333 -126.667 -182 -190c-17 36 -59 82 -100 120c-80 79 -442 306 -465 324c14 75.333 28 150.667 42 226c182 129 537.642 355.695 686 433c32.919 17.15 57 31 94 42l90 -207c-178 -85 -454 -267 -637 -390c123 -101 416 -234 472 -358z
" />
    <glyph glyph-name="greater" unicode="&#x3e;" 
d="M64 166c104 124 450 249 613 350c-135 123 -321 291 -465 376c47.667 60.333 95.333 120.67 143 181c33 -11 50.195 -24.71 77 -42c118.835 -76.674 386 -304 518 -433c-6.333 -66.667 -12.667 -133.333 -19 -200c-29 -18 -481 -245 -591 -324
c-55 -38 -115 -84 -146 -120c-43.333 70.6667 -86.667 141.333 -130 212z" />
    <glyph glyph-name="slash" unicode="/" 
d="M-13 -38c182 277 731 1162 935 1518l192 -108c-206 -352 -759 -1239 -934 -1521c-64.333 37 -128.667 74 -193 111z" />
    <glyph glyph-name="one" unicode="1" 
d="M707 1322c77.667 -15 155.333 -30 233 -45c-83.333 -428.667 -166.667 -857.333 -250 -1286h-258c61.667 320.667 123.333 641.333 185 962c-85 -85 -206 -189 -350 -262c-34 71.333 -68 142.667 -102 214c337 154 531 402 542 417z" />
    <glyph glyph-name="two" unicode="2" 
d="M456 864c-86.333 -14 -172.667 -28 -259 -42c-1 13 -2 29 -2 46c0 22 0.312 46.153 4 66c1.682 9.048 2.217 16.958 4 25c42.059 189.74 213 347 469 347c231 0 359 -81 359 -273c0 -33 -3.25 -68.952 -11 -108c-39.255 -197.743 -177 -302 -274 -387
c-66 -55 -352 -267 -363 -323h516c-14 -71.667 -28 -143.333 -42 -215h-860c6 30 9.83309 62.0321 16 95c4.868 26.024 11.703 53.113 22 81c35.9548 97.373 135.79 198.268 264 299c146.759 115.306 439.564 280.302 474 451c3.839 19.031 6 37 6 53c0 79 -47 116 -133 116
c-74 0 -168.839 -44.25 -189 -144c-2.836 -14.031 -5 -29 -5 -46c0 -13 1 -27 4 -41z" />
    <glyph glyph-name="three" unicode="3" 
d="M6 333h251c0 -120 98 -142 178 -142c120 0 212.44 93.92 230 188c4.103 21.98 6 41 6 58c0 69 -31.075 100.899 -69 129c-51.101 37.864 -136 55 -216 55c13 66.667 26 133.333 39 200h16c129 0 261.22 58.54 283 188c1.172 6.97 2 15 2 22c0 54 -45 91 -128 91
c-108 0 -223 -45 -248 -81l-138 171c8 15 137 108 417 108h11c132 0 346 -61 346 -244c0 -16 -1.752 -32.05 -5 -50c-23.216 -128.297 -153 -269 -256 -288c141 -49 206 -145 206 -273c0 -28 -3.058 -56.989 -9 -87c-49.481 -249.904 -187 -400 -535 -400
c-282 0 -381 145 -381 355z" />
    <glyph glyph-name="four" unicode="4" 
d="M632 603c21 108.333 42 216.667 63 325c-98 -129 -220 -240 -319 -327c85.333 0.667 170.667 1.333 256 2zM81 558c43 46 565 482 696 748c83 0.67 166 1.33 249 2c-45.667 -235 -91.333 -470 -137 -705h127c-13.67 -70 -27.333 -140 -41 -210h-127
c-25.333 -131 -50.667 -262 -76 -393h-257c25.333 130 50.667 260 76 390c-151 -0.667 -302 -1.333 -453 -2c-19 56.667 -38 113.333 -57 170z" />
    <glyph glyph-name="five" unicode="5" 
d="M534 709c-120 0 -193 -91 -211 -111c-58 26.667 -116 53.333 -174 80c59.333 203.333 118.667 406.67 178 610c225.333 -0.67 450.667 -1.33 676 -2c-13 -65.67 -26 -131.33 -39 -197h-439c-18.333 -66.33 -36.667 -132.667 -55 -199c0 0 42 10 120 10
c57 0 133 -4 195 -37c82 -48 165 -120 165 -287c0 -37 -4.827 -80.034 -14 -128c-60.853 -318.215 -299 -448 -539 -450h-2c-188 0 -306 76 -355 236c83.333 36.667 166.667 73.333 250 110c13 -78 64 -134 146 -134c90 0 204.074 63.986 238 240c5.011 25.998 7 51 7 74
c0 116 -62 185 -147 185z" />
    <glyph glyph-name="six" unicode="6" 
d="M985 1072c-278 -30 -519 -132 -589 -398c0 0 83 87 203 87c183 0 325 -126 325 -314c0 -25 -2.89 -52.021 -8 -79c-47.961 -253.192 -239 -371 -505 -371c-187 0 -340 155 -340 377c0 32 3.2044 65.96 10 100c90.723 454.439 341 734 893 824
c3.667 -75.33 7.333 -150.67 11 -226zM341 457c-6 -31 -10 -62 -10 -92c0 -91 34 -165 126 -165c85 0 182.835 66.259 204 167c3.79 18.042 5 35 5 51c0 88 -50 142 -106 142c-105 0 -160 -38 -219 -103z" />
    <glyph glyph-name="seven" unicode="7" 
d="M327 1292c84 0 191 -6 268 -6c151 0 317 7 460 7h41c23 -54.33 46 -108.67 69 -163c-389 -468 -597 -676 -685 -1130h-261c79 407 292 674 659 1073c-88 -3 -191 -3 -282 -3c-63 0 -88 0 -150 3c-2 -1 -30 -67 -41 -104c-80.333 21.333 -160.667 42.67 -241 64
c30 59 118 193 163 259z" />
    <glyph glyph-name="eight" unicode="8" 
d="M469 203c69 0 202.924 46.832 229 185c2.073 10.986 3 22 3 34c0 74 -44 158 -148 210c-144 -60 -224.351 -163.139 -241 -244c-2.887 -14.022 -4 -27 -4 -39c0 -108 99 -146 161 -146zM593 840c112 23 162.904 104.019 172 150c1.979 10 3 19 3 27c0 70 -67 74 -126 74
c-66 0 -146.054 -5.82 -163 -101c-1.066 -5.987 -2 -13 -2 -21c0 -46 27 -109 116 -129zM681 1293c228 0 340 -92 340 -240c0 -21 -2.16 -43.97 -7 -68c-20.699 -102.854 -128 -223 -222 -249c95 -44 170 -140 170 -278c0 -25 -2.791 -52.041 -8 -80
c-44.218 -237.318 -267 -387 -526 -387c-230 0 -384 118 -384 310c0 25 2.9073 50.018 8 77c34.3733 182.116 170 306 302 358c-73 23 -130 117 -130 209c0 14 1.213 26.958 4 40c40.031 187.3 192 308 453 308z" />
    <glyph glyph-name="nine" unicode="9" 
d="M627 1106c-110 0 -177.722 -80.29 -192 -148c-2.752 -13.047 -4 -26 -4 -38c0 -85 62 -136 143 -136c96 0 156 42 203 86c2 25 4 49 4 71c0 106 -33 165 -154 165zM179 955c40.278 199.73 206 347 478 347s367 -163 367 -399c0 -79 -10.98 -166.003 -29 -259
c-69.938 -361.012 -194 -646 -586 -646c-243 0 -324 68 -420 173l204 153c48 -87 101 -119 215 -119c159 0 278.604 147.887 322 376c3.042 15.992 8 50 8 50c-31 -20 -91 -48 -220 -48c-191 0 -346 117 -346 302c0 22 2.154 45.97 7 70z" />
    <glyph glyph-name="equal" unicode="=" 
d="M56 394c142 8 253 8 367 8c178 0 311 -8 479 -8c-14.667 -74.667 -29.333 -149.333 -44 -224c-174 0 -317 4 -499 4c-50 0 -100 2 -152 2c-60 0 -124 -2 -193 -6c14 74.667 28 149.333 42 224zM140 861c141 -9 252 -12 346 -12c192 0 303 10 501 10
c-13.667 -73.333 -27.333 -146.667 -41 -220c-193 0 -306 -12 -503 -12c-96 0 -203 7 -346 16c6 30 14.808 80.038 24 127c6.856 35.028 14 69 19 91z" />
    <glyph glyph-name="backslash" unicode="\" 
d="M838 -64c-79.333 -23.6667 -158.667 -47.333 -238 -71c-65 282 -274 1169 -344 1521c79.333 22.67 158.667 45.33 238 68c66 -356 270 -1241 344 -1518z" />
    <glyph glyph-name="asciicircum" unicode="^" 
d="M659 1101l405 -513c-61.33 -54.667 -122.667 -109.333 -184 -164c-92.667 116.667 -185.333 233.333 -278 350c-136.333 -115.333 -272.667 -230.667 -409 -346c-39.333 51.333 -78.667 102.667 -118 154c194.667 173 389.333 346 584 519z" />
    <glyph glyph-name="underscore" unicode="_" 
d="M-53 -121h946c-13.667 -71 -27.333 -142 -41 -213h-950z" />
    <glyph glyph-name="grave" unicode="`" 
d="M870 1367c-16.096 -80.98 -22 -162 -22 -235c0 -117 16 -213 34 -252c-84.333 -32.333 -168.667 -64.667 -253 -97c-44 96 -87 221 -87 385c0 61 6.202 127.96 20 201c8.119 42.98 19 78 33 119c100.667 -7 201.333 -14 302 -21c-10 -33 -20.042 -64.99 -27 -100z" />
    <glyph glyph-name="question" unicode="?" 
d="M291 270h352c-17.333 -90 -34.667 -180 -52 -270h-352c17.333 90 34.667 180 52 270zM219 1215c174 127 356 130 455 130h13c225 0 359 -99 359 -275c0 -25 -2.79 -51.04 -8 -79c-31.72 -170.229 -148.2 -235.715 -249 -306c-67.132 -46.809 -133 -118 -150 -206
c-3 -16.333 -6 -32.667 -9 -49c-90.667 0.333 -181.333 0.667 -272 1c2.667 14.667 5.333 29.333 8 44c28 146 149.143 258.812 230 320c96.169 72.775 173.808 112.038 191 199c2.967 15.01 4 30 4 43c0 69 -40 116 -131 116c-50 0 -166 -1 -304 -140
c-45.667 67.33 -91.333 134.67 -137 202z" />
    <glyph glyph-name="asciitilde" unicode="~" 
d="M414 807c230 0 245 -222 335 -222c86 0 125 90 144 158l198 -54c-20 -105 -116 -314 -393 -314c-224 0 -220 221 -332 221c-56 0 -120 -65 -161 -155c-53.667 36.667 -107.333 73.333 -161 110c59 130 168 256 370 256z" />
    <glyph glyph-name="exclamdown" unicode="&#xa1;" 
d="M145.254 -257.613c65.1611 303.824 130.323 607.647 195.484 911.471c94.335 0.410156 188.67 0.819336 283.005 1.22852c-54.4971 -304.52 -108.993 -609.035 -163.49 -913.558c-105 0.286133 -209.999 0.572266 -314.999 0.858398zM695.266 846.892
c-116.667 0.318359 -233.332 0.636719 -349.999 0.954102c17.5781 89.9521 35.1582 179.905 52.7363 269.857c116.666 -0.318359 233.332 -0.635742 349.998 -0.954102c-17.5781 -89.9521 -35.1572 -179.904 -52.7354 -269.857z" />
    <glyph glyph-name="Ograve" unicode="&#xd2;" 
d="M988 1525c-41.333 -58 -82.667 -116 -124 -174c-134 47 -334 158 -423 270c55.667 57.3301 111.333 114.67 167 172c94 -108 246 -220 380 -268zM709 1350c134 0 349 -51 349 -433c0 -76 -9 -165 -28 -270c-0.669922 -3.66699 -1.33008 -7.33301 -2 -11
c-32 -167 -94.5957 -324.285 -161 -419c-103.368 -147.439 -270 -233 -435 -233c-122 0 -262.701 41.1816 -324 143c-39.8047 66.1172 -57 147 -57 240c0 65 8.15332 135.97 23 212c68.709 351.86 159.119 510.89 248 608c84.1123 91.9004 230 160 387 163zM471 187
c137 0 260 276 296 453c1.33301 5.66699 2.66699 11.333 4 17c14 69 29 168 29 258c0 123 -29 232 -131 232c-139 0 -277.327 -278.135 -332 -555c-12.8418 -65.0312 -23 -134 -23 -196c0 -116 36 -209 157 -209z" />
    <glyph glyph-name="Oacute" unicode="&#xd3;" 
d="M452 1527c152 48 348 160 484 268c33.667 -57.3301 67.333 -114.67 101 -172c-133 -112 -377 -223 -529 -270c-18.667 58 -37.333 116 -56 174zM709 1350c134 0 349 -51 349 -433c0 -76 -9 -165 -28 -270c-0.669922 -3.66699 -1.33008 -7.33301 -2 -11
c-32 -167 -94.5957 -324.285 -161 -419c-103.368 -147.439 -270 -233 -435 -233c-122 0 -262.701 41.1816 -324 143c-39.8047 66.1172 -57 147 -57 240c0 65 8.15332 135.97 23 212c68.709 351.86 159.119 510.89 248 608c84.1123 91.9004 230 160 387 163zM471 187
c137 0 260 276 296 453c1.33301 5.66699 2.66699 11.333 4 17c14 69 29 168 29 258c0 123 -29 232 -131 232c-139 0 -277.327 -278.135 -332 -555c-12.8418 -65.0312 -23 -134 -23 -196c0 -116 36 -209 157 -209z" />
    <glyph glyph-name="Ocircumflex" unicode="&#xd4;" 
d="M804 1786c107.333 -97 214.667 -194 322 -291c-56.3301 -52 -112.667 -104 -169 -156l-201 201l-258 -189l-117 138zM709 1350c134 0 349 -51 349 -433c0 -76 -9 -165 -28 -270c-0.669922 -3.66699 -1.33008 -7.33301 -2 -11c-32 -167 -94.5957 -324.285 -161 -419
c-103.368 -147.439 -270 -233 -435 -233c-122 0 -262.701 41.1816 -324 143c-39.8047 66.1172 -57 147 -57 240c0 65 8.15332 135.97 23 212c68.709 351.86 159.119 510.89 248 608c84.1123 91.9004 230 160 387 163zM471 187c137 0 260 276 296 453
c1.33301 5.66699 2.66699 11.333 4 17c14 69 29 168 29 258c0 123 -29 232 -131 232c-139 0 -277.327 -278.135 -332 -555c-12.8418 -65.0312 -23 -134 -23 -196c0 -116 36 -209 157 -209z" />
    <glyph glyph-name="Otilde" unicode="&#xd5;" 
d="M659 1673c216 0 209 -132 299 -132c50 0 87 31 106 100c55.3301 -18 110.67 -36 166 -54c-40 -96 -123 -224 -285 -224c-198 0 -193 130 -294 130c-42 0 -87 -37 -108 -100c-56.333 26 -112.667 52 -169 78c51 93 144 202 285 202zM709 1350c134 0 349 -51 349 -433
c0 -76 -9 -165 -28 -270c-0.669922 -3.66699 -1.33008 -7.33301 -2 -11c-32 -167 -94.5957 -324.285 -161 -419c-103.368 -147.439 -270 -233 -435 -233c-122 0 -262.701 41.1816 -324 143c-39.8047 66.1172 -57 147 -57 240c0 65 8.15332 135.97 23 212
c68.709 351.86 159.119 510.89 248 608c84.1123 91.9004 230 160 387 163zM471 187c137 0 260 276 296 453c1.33301 5.66699 2.66699 11.333 4 17c14 69 29 168 29 258c0 123 -29 232 -131 232c-139 0 -277.327 -278.135 -332 -555c-12.8418 -65.0312 -23 -134 -23 -196
c0 -116 36 -209 157 -209z" />
    <glyph glyph-name="Odieresis" unicode="&#xd6;" 
d="M883 1681l282 -3c-15.667 -80 -31.333 -160 -47 -240c-93.667 1 -187.333 2 -281 3c15.333 80 30.667 160 46 240zM463 1681h279c-15.333 -80 -30.667 -160 -46 -240h-279c15.333 80 30.667 160 46 240zM709 1350c134 0 349 -51 349 -433c0 -76 -9 -165 -28 -270
c-0.669922 -3.66699 -1.33008 -7.33301 -2 -11c-32 -167 -94.5957 -324.285 -161 -419c-103.368 -147.439 -270 -233 -435 -233c-122 0 -262.701 41.1816 -324 143c-39.8047 66.1172 -57 147 -57 240c0 65 8.15332 135.97 23 212c68.709 351.86 159.119 510.89 248 608
c84.1123 91.9004 230 160 387 163zM471 187c137 0 260 276 296 453c1.33301 5.66699 2.66699 11.333 4 17c14 69 29 168 29 258c0 123 -29 232 -131 232c-139 0 -277.327 -278.135 -332 -555c-12.8418 -65.0312 -23 -134 -23 -196c0 -116 36 -209 157 -209z" />
    <glyph glyph-name="Oslash" unicode="&#xd8;" 
d="M1029 1128c19 -56 29 -124 29 -210c0 -76 -8 -166 -28 -271c-0.67 -3.667 -1.33 -7.333 -2 -11c-32 -167 -94.596 -324.285 -161 -419c-103.368 -147.439 -270 -233 -435 -233c-75 0 -157 15 -224 51c-37.667 -50 -75.333 -100 -113 -150
c-46.3333 34.6667 -92.6667 69.3333 -139 104c44 58 88 117 132 175c-26 58 -38 125 -38 201c0 66 9.1534 137.97 24 214c68.709 351.86 159.119 510.89 248 608c84.112 91.9 230 160 387 163c65 0 150 -12 219 -68c36 49 74 97 110 146c46.67 -33.67 93.33 -67.33 140 -101
c-49.67 -66.33 -99.33 -132.67 -149 -199zM355 232c27 -36 60 -45 116 -45c79 0 140 62 186 139c38 59 90 215 110 314c1.333 5.667 2.667 11.333 4 17c9 48 18 104 24 160c-146.667 -195 -293.333 -390 -440 -585zM774 1076c-24 53 -60 71 -105 71
c-65 0 -108.034 -24.97 -162 -96c-63.04 -82.969 -122.231 -216.154 -170 -459c-6.889 -35.021 -14 -78 -18 -121c153 202 304 404 455 605z" />
    <glyph glyph-name="multiply" unicode="&#xd7;" 
d="M317 999c73 -59 174 -219 242 -306l366 297c46 -58.333 92 -116.667 138 -175c-122.333 -98.667 -244.667 -197.333 -367 -296c116 -150 144 -196 246 -328c-66.667 -54.667 -133.333 -109.333 -200 -164c-109 150 -55 77 -242 326
c-120.333 -105 -240.667 -210 -361 -315c-46.3333 60.3333 -92.6667 120.667 -139 181l357 312c-111 143 -193 262 -240 304c66.667 54.667 133.333 109.333 200 164z" />
    <glyph glyph-name="Ugrave" unicode="&#xd9;" 
d="M982 1515c-41.333 -58 -82.667 -116 -124 -174c-134 47 -334 158 -423 270c55.667 57.3301 111.333 114.67 167 172c94 -108 246 -220 380 -268zM888 1350c82.667 -9.33008 165.33 -18.6699 248 -28c-17 -50 -24.3604 -85.1396 -33 -127
c-1.86035 -9.03027 -3.01953 -19 -5 -29c-29.29 -147.94 -51 -278 -73 -391c-4 -19.667 -8 -39.333 -12 -59c-46 -237 -94.1328 -462.861 -232 -595c-101.098 -96.8975 -236 -126 -366 -131c-255 0 -344 116 -344 325c0 43 4.18555 89.9756 11 141
c10.2793 76.9619 32.0908 200.982 59 339c34.1152 174.977 75 373 112 534h258c-37 -168 -84.6152 -397.077 -122 -586c-9.89844 -50.0195 -18.9697 -98.0059 -27 -141c-11.9551 -64.0078 -22.2598 -116.99 -24 -154c-1.1748 -24.9912 -3 -53 -3 -82c0 -81 16 -163 119 -166
c202 9 248.643 230.877 304 518c24.2822 125.945 48.1738 274.966 82 448c14.0723 71.9902 26 121 48 184z" />
    <glyph glyph-name="Uacute" unicode="&#xda;" 
d="M468 1498c152 48 348 160 484 268c33.667 -57.3301 67.333 -114.67 101 -172c-133 -112 -377 -223 -529 -270c-18.667 58 -37.333 116 -56 174zM888 1350c82.667 -9.33008 165.33 -18.6699 248 -28c-17 -50 -24.3604 -85.1396 -33 -127
c-1.86035 -9.03027 -3.01953 -19 -5 -29c-29.29 -147.94 -51 -278 -73 -391c-4 -19.667 -8 -39.333 -12 -59c-46 -237 -94.1328 -462.861 -232 -595c-101.098 -96.8975 -236 -126 -366 -131c-255 0 -344 116 -344 325c0 43 4.18555 89.9756 11 141
c10.2793 76.9619 32.0908 200.982 59 339c34.1152 174.977 75 373 112 534h258c-37 -168 -84.6152 -397.077 -122 -586c-9.89844 -50.0195 -18.9697 -98.0059 -27 -141c-11.9551 -64.0078 -22.2598 -116.99 -24 -154c-1.1748 -24.9912 -3 -53 -3 -82c0 -81 16 -163 119 -166
c202 9 248.643 230.877 304 518c24.2822 125.945 48.1738 274.966 82 448c14.0723 71.9902 26 121 48 184z" />
    <glyph glyph-name="Ucircumflex" unicode="&#xdb;" 
d="M793 1798c107.333 -97 214.667 -194 322 -291c-56.3301 -52 -112.667 -104 -169 -156l-201 201l-258 -189l-117 138zM888 1350c82.667 -9.33008 165.33 -18.6699 248 -28c-17 -50 -24.3604 -85.1396 -33 -127c-1.86035 -9.03027 -3.01953 -19 -5 -29
c-29.29 -147.94 -51 -278 -73 -391c-4 -19.667 -8 -39.333 -12 -59c-46 -237 -94.1328 -462.861 -232 -595c-101.098 -96.8975 -236 -126 -366 -131c-255 0 -344 116 -344 325c0 43 4.18555 89.9756 11 141c10.2793 76.9619 32.0908 200.982 59 339
c34.1152 174.977 75 373 112 534h258c-37 -168 -84.6152 -397.077 -122 -586c-9.89844 -50.0195 -18.9697 -98.0059 -27 -141c-11.9551 -64.0078 -22.2598 -116.99 -24 -154c-1.1748 -24.9912 -3 -53 -3 -82c0 -81 16 -163 119 -166c202 9 248.643 230.877 304 518
c24.2822 125.945 48.1738 274.966 82 448c14.0723 71.9902 26 121 48 184z" />
    <glyph glyph-name="Udieresis" unicode="&#xdc;" 
d="M847 1692.1l282 -3c-15.667 -80 -31.333 -160 -47 -240c-93.667 1 -187.333 2 -281 3c15.333 80 30.667 160 46 240zM427 1692.1h279c-15.333 -80 -30.667 -160 -46 -240h-279c15.333 80 30.667 160 46 240zM888 1350c82.667 -9.33008 165.33 -18.6699 248 -28
c-17 -50 -24.3604 -85.1396 -33 -127c-1.86035 -9.03027 -3.01953 -19 -5 -29c-29.29 -147.94 -51 -278 -73 -391c-4 -19.667 -8 -39.333 -12 -59c-46 -237 -94.1328 -462.861 -232 -595c-101.098 -96.8975 -236 -126 -366 -131c-255 0 -344 116 -344 325
c0 43 4.18555 89.9756 11 141c10.2793 76.9619 32.0908 200.982 59 339c34.1152 174.977 75 373 112 534h258c-37 -168 -84.6152 -397.077 -122 -586c-9.89844 -50.0195 -18.9697 -98.0059 -27 -141c-11.9551 -64.0078 -22.2598 -116.99 -24 -154
c-1.1748 -24.9912 -3 -53 -3 -82c0 -81 16 -163 119 -166c202 9 248.643 230.877 304 518c24.2822 125.945 48.1738 274.966 82 448c14.0723 71.9902 26 121 48 184z" />
    <glyph glyph-name="Yacute" unicode="&#xdd;" 
d="M442 1509c152 48 348 160 484 268c33.667 -57.3301 67.333 -114.67 101 -172c-133 -112 -377 -223 -529 -270c-18.667 58 -37.333 116 -56 174zM279 18.4004c100 197.333 187 376.267 287 573.6c-57 113 -359 522 -389 630c72.333 46.6699 144.667 93.3301 217 140
c25 -79 236 -400 296 -540c84 184.67 168 369.33 252 554l219 -96c-206 -426.667 -445 -918.934 -651 -1345.6c-63 21 -156 48 -231 84z" />
    <glyph glyph-name="ntilde" unicode="&#xf1;" 
d="M588 1402c216 0 209 -132 299 -132c50 0 87 31 106 100c55.3301 -18 110.67 -36 166 -54c-40 -96 -123 -224 -285 -224c-198 0 -193 130 -294 130c-42 0 -87 -37 -108 -100c-56.333 26 -112.667 52 -169 78c51 93 144 202 285 202zM423 821c99 114 181 205 383 205
c124 0 218 -50 218 -173c0 -17 -2 -37 -6 -57c-33.667 -172.667 -67.333 -345.333 -101 -518c-2 -8 -2 -14 -2 -21c0 -50 41 -70 85 -97c-51.667 -66.667 -103.333 -133.333 -155 -200c-80 27 -195 89 -195 216c0 14 2 30 5 46l93 477c5 25 8 47 8 65c0 35 -11 55 -40 55
c-106 0 -267 -197 -341 -315l-99 -504h-251c45.667 235.333 91.333 470.667 137 706c23 118 30 170 30 218c0 25 -2 48 -4 80c80.333 16 160.667 32 241 48c1 -5 2 -18 2 -35c0 -56 -6 -158 -8 -196z" />
    <glyph glyph-name="ograve" unicode="&#xf2;" 
d="M910 1227c-41.333 -58 -82.667 -116 -124 -174c-134 47 -334 158 -423 270c55.667 57.3301 111.333 114.67 167 172c94 -108 246 -220 380 -268zM598 247c57 52 91.8652 155.689 115 283c1.08691 5.9834 1.96777 10.0059 3 16c7.75684 45.041 13 87 13 125
c0 94 -31 159 -123 159c-151 0 -223.313 -139.941 -263 -348c-7.05566 -36.9893 -11 -72 -11 -103c0 -110 45 -182 139 -182c55 1 84 14 127 50zM431 -6c-254 0 -359 127 -359 327c0 44 5.0498 91.9902 15 143c72.3594 370.93 252 568 544 568c197 0 294 -69 338 -201
c13 -39 18 -86 18 -136c0 -51 -5.26172 -102.949 -15 -152c-56.5176 -284.69 -203 -549 -539 -549h-2z" />
    <glyph glyph-name="oacute" unicode="&#xf3;" 
d="M422 1227c152 48 348 160 484 268c33.667 -57.3301 67.333 -114.67 101 -172c-133 -112 -377 -223 -529 -270c-18.667 58 -37.333 116 -56 174zM598 247c57 52 91.8652 155.689 115 283c1.08691 5.9834 1.96777 10.0059 3 16c7.75684 45.041 13 87 13 125
c0 94 -31 159 -123 159c-151 0 -223.313 -139.941 -263 -348c-7.05566 -36.9893 -11 -72 -11 -103c0 -110 45 -182 139 -182c55 1 84 14 127 50zM431 -6c-254 0 -359 127 -359 327c0 44 5.0498 91.9902 15 143c72.3594 370.93 252 568 544 568c197 0 294 -69 338 -201
c13 -39 18 -86 18 -136c0 -51 -5.26172 -102.949 -15 -152c-56.5176 -284.69 -203 -549 -539 -549h-2z" />
    <glyph glyph-name="ocircumflex" unicode="&#xf4;" 
d="M748 1492c107.333 -97 214.667 -194 322 -291c-56.3301 -52 -112.667 -104 -169 -156l-201 201l-258 -189l-117 138zM598 247c57 52 91.8652 155.689 115 283c1.08691 5.9834 1.96777 10.0059 3 16c7.75684 45.041 13 87 13 125c0 94 -31 159 -123 159
c-151 0 -223.313 -139.941 -263 -348c-7.05566 -36.9893 -11 -72 -11 -103c0 -110 45 -182 139 -182c55 1 84 14 127 50zM431 -6c-254 0 -359 127 -359 327c0 44 5.0498 91.9902 15 143c72.3594 370.93 252 568 544 568c197 0 294 -69 338 -201c13 -39 18 -86 18 -136
c0 -51 -5.26172 -102.949 -15 -152c-56.5176 -284.69 -203 -549 -539 -549h-2z" />
    <glyph glyph-name="otilde" unicode="&#xf5;" 
d="M599 1415c216 0 209 -132 299 -132c50 0 87 31 106 100c55.3301 -18 110.67 -36 166 -54c-40 -96 -123 -224 -285 -224c-198 0 -193 130 -294 130c-42 0 -87 -37 -108 -100c-56.333 26 -112.667 52 -169 78c51 93 144 202 285 202zM598 247
c57 52 91.8652 155.689 115 283c1.08691 5.9834 1.96777 10.0059 3 16c7.75684 45.041 13 87 13 125c0 94 -31 159 -123 159c-151 0 -223.313 -139.941 -263 -348c-7.05566 -36.9893 -11 -72 -11 -103c0 -110 45 -182 139 -182c55 1 84 14 127 50zM431 -6
c-254 0 -359 127 -359 327c0 44 5.0498 91.9902 15 143c72.3594 370.93 252 568 544 568c197 0 294 -69 338 -201c13 -39 18 -86 18 -136c0 -51 -5.26172 -102.949 -15 -152c-56.5176 -284.69 -203 -549 -539 -549h-2z" />
    <glyph glyph-name="odieresis" unicode="&#xf6;" 
d="M821 1427.1l282 -3c-15.667 -80 -31.333 -160 -47 -240c-93.667 1 -187.333 2 -281 3c15.333 80 30.667 160 46 240zM401 1427.1h279c-15.333 -80 -30.667 -160 -46 -240h-279c15.333 80 30.667 160 46 240zM598 247c57 52 91.8652 155.689 115 283
c1.08691 5.9834 1.96777 10.0059 3 16c7.75684 45.041 13 87 13 125c0 94 -31 159 -123 159c-151 0 -223.313 -139.941 -263 -348c-7.05566 -36.9893 -11 -72 -11 -103c0 -110 45 -182 139 -182c55 1 84 14 127 50zM431 -6c-254 0 -359 127 -359 327
c0 44 5.0498 91.9902 15 143c72.3594 370.93 252 568 544 568c197 0 294 -69 338 -201c13 -39 18 -86 18 -136c0 -51 -5.26172 -102.949 -15 -152c-56.5176 -284.69 -203 -549 -539 -549h-2z" />
    <glyph glyph-name="oslash" unicode="&#xf8;" 
d="M598 247c57 52 92 156 115 283c1 6 2 10 3 16c3 14 5 27 7 40c-122 -109 -243 -218 -365 -327c22 -39 60 -62 113 -62c55 1 84 14 127 50zM980 1067c41 -47 82 -93 123 -140c-43 -38 -86 -77 -129 -115c9 -35 13 -76 13 -119c0 -50 -6 -102 -15 -150
c-54 -285 -203 -549 -539 -549h-2c-125 0 -213 31 -271 86c-30 -27 -59 -53 -89 -80c-40 44 -80 89 -120 133c42 38 84 77 126 115c-4 23 -5 47 -5 73c0 44 5 92 15 143c72 371 252 568 544 568c109 0 186 -21 242 -62c36 32 71 65 107 97zM688 802c-20 18 -46 28 -82 28
c-149 0 -222 -137 -262 -340c115 104 229 208 344 312z" />
    <glyph glyph-name="ugrave" unicode="&#xf9;" 
d="M888 1225c-41.333 -58 -82.667 -116 -124 -174c-134 47 -334 158 -423 270c55.667 57.3301 111.333 114.67 167 172c94 -108 246 -220 380 -268zM815 -17c-58 29 -103 68 -135 250c-78 -110 -178 -228 -329 -231h-9c-136 0 -296 18 -296 185c0 19 2.24707 40.9521 7 64
c16.8721 81.8096 31.2324 156.955 50 253c38.4756 196.906 74 393 74 469c0 7 0 14 -1 19c86.333 9.33008 172.667 18.6699 259 28v-10c0 -100 -55 -358 -122 -712v-3c0 -65 7 -80 52 -80c124 0 338 355 363 482c20.333 105.333 40.667 210.667 61 316h251
c-46 -235.667 -92 -471.333 -138 -707c-1 -4 -1 -7 -1 -11c0 -50 48 -109 92 -129c-59.333 -61 -118.667 -122 -178 -183z" />
    <glyph glyph-name="uacute" unicode="&#xfa;" 
d="M468 1227c152 48 348 160 484 268c33.667 -57.3301 67.333 -114.67 101 -172c-133 -112 -377 -223 -529 -270c-18.667 58 -37.333 116 -56 174zM815 -17c-58 29 -103 68 -135 250c-78 -110 -178 -228 -329 -231h-9c-136 0 -296 18 -296 185c0 19 2.24707 40.9521 7 64
c16.8721 81.8096 31.2324 156.955 50 253c38.4756 196.906 74 393 74 469c0 7 0 14 -1 19c86.333 9.33008 172.667 18.6699 259 28v-10c0 -100 -55 -358 -122 -712v-3c0 -65 7 -80 52 -80c124 0 338 355 363 482c20.333 105.333 40.667 210.667 61 316h251
c-46 -235.667 -92 -471.333 -138 -707c-1 -4 -1 -7 -1 -11c0 -50 48 -109 92 -129c-59.333 -61 -118.667 -122 -178 -183z" />
    <glyph glyph-name="ucircumflex" unicode="&#xfb;" 
d="M752 1501c107.333 -97 214.667 -194 322 -291c-56.3301 -52 -112.667 -104 -169 -156l-201 201l-258 -189l-117 138zM815 -17c-58 29 -103 68 -135 250c-78 -110 -178 -228 -329 -231h-9c-136 0 -296 18 -296 185c0 19 2.24707 40.9521 7 64
c16.8721 81.8096 31.2324 156.955 50 253c38.4756 196.906 74 393 74 469c0 7 0 14 -1 19c86.333 9.33008 172.667 18.6699 259 28v-10c0 -100 -55 -358 -122 -712v-3c0 -65 7 -80 52 -80c124 0 338 355 363 482c20.333 105.333 40.667 210.667 61 316h251
c-46 -235.667 -92 -471.333 -138 -707c-1 -4 -1 -7 -1 -11c0 -50 48 -109 92 -129c-59.333 -61 -118.667 -122 -178 -183z" />
    <glyph glyph-name="udieresis" unicode="&#xfc;" 
d="M774 1427.5l282 -3c-15.667 -80 -31.333 -160 -47 -240c-93.667 1 -187.333 2 -281 3c15.333 80 30.667 160 46 240zM354 1427.5h279c-15.333 -80 -30.667 -160 -46 -240h-279c15.333 80 30.667 160 46 240zM815 -17c-58 29 -103 68 -135 250
c-78 -110 -178 -228 -329 -231h-9c-136 0 -296 18 -296 185c0 19 2.24707 40.9521 7 64c16.8721 81.8096 31.2324 156.955 50 253c38.4756 196.906 74 393 74 469c0 7 0 14 -1 19c86.333 9.33008 172.667 18.6699 259 28v-10c0 -100 -55 -358 -122 -712v-3
c0 -65 7 -80 52 -80c124 0 338 355 363 482c20.333 105.333 40.667 210.667 61 316h251c-46 -235.667 -92 -471.333 -138 -707c-1 -4 -1 -7 -1 -11c0 -50 48 -109 92 -129c-59.333 -61 -118.667 -122 -178 -183z" />
    <glyph glyph-name="plusminus" unicode="&#xb1;" 
d="M139 854c50 9 80 10 145 10h39h160l69 357c82.333 0.33 164.667 0.67 247 1l-72 -357c126 0 180 -2 242 -2h82c-15.33 -78 -30.67 -156 -46 -234h-14c-6 0 -95 0 -304 3c-14 -74 -29 -147 -43 -221c93 0 222 -1 303 -2h18c-16 -81.667 -32 -163.333 -48 -245h-18
c-134 3 -375 3 -500 3c-67 0 -225 -1 -379 -9c7.6667 40.667 15.3333 81.333 23 122l18 123c114 6 236 8 332 8c14 72.667 28 145.333 42 218h-89c-133 0 -191 -1 -250 -9c14.333 78 28.667 156 43 234z" />
    <glyph glyph-name="divide" unicode="&#xf7;" 
d="M483 1038h315c-18.333 -93.333 -36.667 -186.667 -55 -280h-315c18.333 93.333 36.667 186.667 55 280zM336 284h315c-18.333 -94 -36.667 -188 -55 -282h-315c18.333 94 36.667 188 55 282zM118 654c45 2 96 3 146 3c100 0 200 -3 268 -3h119c82 0 234 -1 341 -2h18
c-16 -81.667 -32 -163.333 -48 -245h-18c-134 3 -336 3 -461 3c-43 0 -134 3 -234 3c-57 0 -116 -1 -172 -4c7.6667 40.667 15.3333 81.333 23 122z" />
    <glyph glyph-name="yacute" unicode="&#xfd;" 
d="M473 1227c152 48 348 160 484 268c33.667 -57.3301 67.333 -114.67 101 -172c-133 -112 -377 -223 -529 -270c-18.667 58 -37.333 116 -56 174zM54 -32c6 -7 44 -142 189 -142c89 0 199 201 237 295c-117 480 -172 630 -288 630c-20 0 -35 0 -45 -1
c2 87.667 4 175.333 6 263h101c192 0 289 -266 386 -672c116 217 146 445 198 672h256c-12 -60 -23.7402 -122.064 -36 -174c-76.3574 -323.379 -276.837 -725.129 -518 -1030c-136.907 -173.073 -229 -185 -376 -185c-170 0 -281 170 -302 176z" />
    <glyph glyph-name="ydieresis" unicode="&#xff;" 
d="M761 1421.4l282 -3c-15.667 -80 -31.333 -160 -47 -240c-93.667 1 -187.333 2 -281 3c15.333 80 30.667 160 46 240zM341 1421.4h279c-15.333 -80 -30.667 -160 -46 -240h-279c15.333 80 30.667 160 46 240zM54 -32c6 -7 44 -142 189 -142c89 0 199 201 237 295
c-117 480 -172 630 -288 630c-20 0 -35 0 -45 -1c2 87.667 4 175.333 6 263h101c192 0 289 -266 386 -672c116 217 146 445 198 672h256c-12 -60 -23.7402 -122.064 -36 -174c-76.3574 -323.379 -276.837 -725.129 -518 -1030c-136.907 -173.073 -229 -185 -376 -185
c-170 0 -281 170 -302 176z" />
    <glyph glyph-name="OE" unicode="&#x152;" 
d="M400 199c60 309 121 619 181 928c-109 0 -203 -176 -276 -549c-14 -72 -21 -138 -21 -193c0 -117 32 -188 97 -188c16 0 6 1 19 2zM776 206c59 2 89 10 137 26c9 -67 18 -133 27 -200c-112 -29 -237 -33 -348 -33c-47 0 -97 1 -152 1c-18 -7 -114 -8 -129 -8
c-218 4 -287 158 -287 355c0 78 11 163 28 250c85 436 241 733 576 733c26 0 53 -2 78 -7c60 3 123 3 186 3c85 0 171 -1 253 -1l-39 -198c-92 0 -84 1 -155 1c-35 0 -74 0 -121 -1c-18 -93 -36 -185 -54 -278h209c-13 -68 -27 -137 -40 -205h-209
c-39 -202 -70 -358 -85 -437c42 0 83 -1 125 -1z" />
    <glyph glyph-name="yen" unicode="&#xa5;" 
d="M292 -6c9.333 48 18.667 96 28 144c8 39 23 109 39 185h-92c-60 0 -123 -1 -193 -5c13.6667 74.333 27.333 148.667 41 223c110 6 203 8 292 8c5 24 9 46 12 64c-1 3 -4 7 -6 11c-80 2 -169 7 -282 14c6 30 14.808 80.038 24 127c6.856 35.028 14 69 19 91
c51 -3 98 -5 142 -7c-60 145 -121 309 -139 373l246 141c25 -79 119 -371 179 -511c126 142 299 435 354 524c67.33 -45.33 134.67 -90.67 202 -136c-39 -56 -170 -232 -290 -387c46 1 96 1 153 1c-13.67 -73 -27.333 -146 -41 -219c-113 0 -198 -4 -290 -7
c-9 -10 -17 -19 -23 -26c-3 -18 -9 -37 -12 -55c103 -2 197 -6 307 -6c-14.333 -74.667 -28.667 -149.333 -43 -224c-110 0 -209 3 -312 4c-19 -88 -33 -164 -39 -193c-8.667 -44.6667 -17.333 -89.3333 -26 -134h-250z" />
    <glyph glyph-name="Ntilde" unicode="&#xd1;" 
d="M610 1652c216 0 209 -132 299 -132c50 0 87 31 106 100c55.3301 -18 110.67 -36 166 -54c-40 -96 -123 -224 -285 -224c-198 0 -193 130 -294 130c-42 0 -87 -37 -108 -100c-56.333 26 -112.667 52 -169 78c51 93 144 202 285 202zM616 0c-40 259 -117 626 -208 845
c-17.333 -91.667 -34.667 -183.333 -52 -275c-57 -299 -81 -418 -111 -573h-246c86.333 442.667 172.667 885.333 259 1328c69.667 -2.33008 139.333 -4.66992 209 -7c89 -188 232 -662 253 -911c14.8691 122.588 21.4053 249.835 45 371c37 190 76 377 119 551
c81.333 -0.330078 162.67 -0.669922 244 -1c-28 -115 -59.8398 -267.03 -92 -433c-44.7734 -231.044 -91.6914 -489.869 -137 -725c-11.1699 -57.9668 -24 -116 -34 -170h-249z" />
    <glyph glyph-name="Eth" unicode="&#xd0;" 
d="M547 1127h-30c-16 0 -28 0 -46 -3c-4 -26 -8.977 -56 -15 -87c-7.969 -41.006 -14 -64 -20 -95h254c-13 -69.667 -26 -139.333 -39 -209c-85.333 -0.333 -170.667 -0.667 -256 -1c-48 -244 -91 -452 -108 -534c87 -3 39 -3 99 -3h3c40 0 183.616 2.239 280 158
c27.888 45.069 53.052 135.99 64 191c20.096 100.981 29 190 29 266c0 208 -73 317 -215 317zM184 942c2.333 11.667 4.667 23.333 7 35c25 129 45 252 53 340c83 8 129 14 228 14c271 0 411 -82 498 -265c37 -80 56 -181 56 -290c0 -63 -6.27 -129.949 -19 -196
c-13.284 -68.944 -34.993 -138.003 -61 -204c-94.974 -241.01 -279.971 -362.328 -463 -379c-55.991 -5.10023 -107 -7 -162 -7c-84 0 -216 7 -330 7c7 34 7 33 29 131c9 46 68 326 123 604h-70c13.6667 70 27.333 140 41 210h70z" />
    <glyph glyph-name="currency" unicode="&#xa4;" 
d="M605 314c48 38 72 117 93 210c1 4 1 7 2 11c7 30 9 58 9 84c0 74 -28 126 -111 126c-131 0 -190 -103 -221 -257c-5 -24 -7 -46 -7 -67c0 -86 40 -144 124 -144h2c48 1 72 10 109 37zM225 677c-41 52 -83 103 -124 155c76 63 151 127 227 190c41 -50 81 -101 122 -151
c48 16 104 24 164 24c72 0 128 -9 173 -26c56 47 111 93 167 140c51 -64 103 -127 154 -191c-59 -50 -119 -99 -178 -149c1 -14 2 -29 2 -44c0 -31 -3 -62 -9 -92c-15 -79 -42 -155 -85 -220c40 -50 81 -101 121 -151c-76 -63 -151 -127 -227 -190c-46 56 -92 113 -138 169
c-38 -9 -79 -14 -126 -14h-2c-58 0 -108 6 -150 18c-66 -55 -131 -110 -197 -165c-51 64 -102 127 -153 191c61 51 123 103 184 154c-3 18 -4 37 -4 58c0 29 3 60 9 92c15 78 39 145 70 202z" />
    <glyph glyph-name="sterling" unicode="&#xa3;" 
d="M273 193c-27 30 -39 57 -49 79c-7 -5 -25 -33 -27 -54c0 -2 -1 -4 -1 -6c-3 -42 3 -54 12 -54c22 0 45 15 65 35zM916 670c-76 -9 -159 -9 -257 -9h-56c0 -93 -3 -166 -24 -276c-10 -52 -25 -107 -37 -131c60 -44 94 -66 142 -66c26 0 66 10 71 36c1 5 7 38 8 43
c76 0 152 -1 228 -1c-3 -18 -7 -35 -10 -53c-30 -136 -149 -229 -290 -229c-118 0 -172 25 -267 95c-79 -85 -193 -92 -280 -92c-92 0 -125 55 -125 132c0 22 3 47 8 72c27 136 127 265 223 265c59 0 66 -29 87 -74c6 20 7 25 11 47c17 88 18 126 18 192v43
c-52 2 -136 2 -181 2h-17c13 67 26 133 39 200h158c1 71 -2 111 11 177c40 205 201 308 390 308c163 0 268 -95 274 -222l-222 -54c-4 62 -48 74 -92 74h-6c-54 0 -90 -33 -103 -98c-10 -54 -9 -124 -11 -190c32 1 63 2 95 3h57c74 0 140 1 197 7z" />
    <glyph glyph-name="cent" unicode="&#xa2;" 
d="M364 525c-7.034 -35.993 -10 -67 -10 -93c0 -157 107 -160 140 -160h10c83 0 137 51 189 114c56 -34.667 112 -69.333 168 -104c-67 -99 -164 -156 -302 -171l-24 -120h-234c8.667 43.6667 17.333 87.3333 26 131c-37 9 -74.098 23.884 -103 48
c-63.212 52.744 -87 126 -87 215c0 43 5.163 88.968 15 139c40.673 206.865 153 323 324 365c9.333 48 18.667 96 28 144h234c-8.667 -43.667 -17.333 -87.333 -26 -131c50 -7 94.963 -21.053 126 -43c43.947 -31.075 73 -77 83 -118c-66 -26.333 -132 -52.667 -198 -79
c-2 30 -19 80 -135 80c-122 0 -202.107 -104.979 -224 -217z" />
    <glyph glyph-name="percent" unicode="%" 
d="M678 179c32 0 92.16 74.194 103 125c2.783 13.043 4 24 4 34c0 36 -18 52 -53 54h-2c-32 0 -93.524 -70.106 -103 -115c-1.904 -9.019 -2 -18 -2 -26c0 -41 20 -72 53 -72zM389 915c32 0 92.16 74.194 103 125c2.783 13.04 4 24 4 34c0 36 -18 52 -53 54h-2
c-32 0 -93.524 -70.11 -103 -115c-1.904 -9.02 -2 -18 -2 -26c0 -41 20 -72 53 -72zM-37 82c104.667 140.667 209.333 281.333 314 422c130 175 289 284 337 349c-69 -77 -165 -131 -267 -131c-137 0 -230 102 -230 233c0 19 2.035 36.993 6 57
c32.288 162.94 199 306 363 309h7c140 0 232 -90 232 -213c0 -17 -3.5 -33 -5 -51c-0.162 -1.97 -0.682 -5.07 -3 -17c-5.27 -27.12 -20 -65 -40 -101c104.333 145.67 208.667 291.33 313 437c67.67 -37.33 135.33 -74.67 203 -112
c-104.67 -142.33 -209.333 -284.667 -314 -427c-94 -132 -266 -246 -377 -387c71 79 174 133 273 135h7c140 0 232 -90 232 -213c0 -17 -3.5 -33 -5 -51c-0.16 -1.973 -0.79 -5.045 -1 -7c-17.5 -162 -193 -328 -372 -328c-137 0 -230 102 -230 233c0 19 2 37 6 57
c7 35 19 69 37 101c-94.333 -135 -188.667 -270 -283 -405c-67.6667 36.6667 -135.333 73.3333 -203 110z" />
    <glyph glyph-name="guillemotleft" unicode="&#xab;" 
d="M463 566c169 130 338 291 388 431c71.333 -24 142.667 -48 214 -72c-77 -189 -237 -312 -383 -421c105 -118 192 -237 204 -409c-78.333 -28.6667 -156.667 -57.3333 -235 -86c-9 149 -79 301 -210 442c7.333 38.333 14.667 76.667 22 115zM61 576
c169 130 338 291 388 431c71.333 -23.667 142.667 -47.333 214 -71c-77 -189 -237 -312 -383 -421c105 -118 192 -237 204 -409c-78.333 -29 -156.667 -58 -235 -87c-9 149 -79 301 -210 442c7.3333 38.333 14.6667 76.667 22 115z" />
    <glyph glyph-name="guillemotright" unicode="&#xbb;" 
d="M538.642 454.234c-167.932 -131.377 -335.61 -293.754 -384.464 -434.157l-214.582 70.248c75.4531 189.623 234.442 313.927 379.547 424.117c-105.962 117.138 -193.932 235.422 -207.337 407.318c78.0967 29.3066 156.193 58.6123 234.289 87.918
c10.2178 -148.921 81.458 -300.344 213.606 -440.269c-7.01953 -38.3916 -14.04 -76.7842 -21.0596 -115.176zM940.71 447.521c-167.932 -131.377 -335.61 -293.753 -384.464 -434.157c-71.5244 23.083 -143.049 46.165 -214.573 69.248
c75.4521 189.623 234.441 313.927 379.546 424.117c-105.961 117.138 -193.931 235.423 -207.336 407.318c78.0928 29.6396 156.188 59.2793 234.28 88.918c10.2178 -148.921 81.458 -300.344 213.606 -440.269c-7.01953 -38.3916 -14.04 -76.7842 -21.0596 -115.176z" />
    <glyph glyph-name="section" unicode="&#xa7;" 
d="M645 354c52 28 59 42 65 75v6c0 19 -5.093 38.917 -24 60c-96.471 107.574 -213 184 -283 234c-52 -28 -60 -42 -66 -75v-6c0 -19 5.05 -38.955 24 -60c95.249 -105.775 179 -160 276 -227c2.667 -2.333 5.333 -4.667 8 -7zM281 883c0 0 -18 21 -18 82
c0 22 2.833 50.03 9 83c38.944 208.19 259 314 413 320h18c175 0 274 -101 274 -251c0 -21 -2 -43 -6 -66h-220c2 10 3 20 3 29c0 61 -45 88 -102 88c-32 0 -104 -19 -129 -114c-0.801 -3.04 -1.121 -6.98 -2 -11c-3.471 -15.88 -6 -34 -6 -53c0 -32 8.953 -65.064 41 -89
c120.82 -90.24 237.2 -175.822 325 -274c57.13 -63.883 80 -101 80 -155c0 -19 -3.041 -38.992 -8 -64c-23.192 -116.962 -88 -170 -177 -228c0 0 7 -29 7 -72c0 -21 -2 -47 -7 -73c-40 -208 -260 -314 -414 -320h-18c-176 0 -275 102 -275 252c0 21 2 42 6 65h220
c-2 -10 -3 -20 -3 -29c0 -61 45 -88 102 -88c32 0 106 19 131 114c0.801 3.0389 1.096 6.9808 2 11c3.353 14.9118 6 34 6 52c0 32 -8.891 65.146 -42 90c-120.599 90.529 -235.777 176.202 -324 274c-57.853 64.132 -80 101 -80 156c0 18 2.195 38.963 7 63
c28.138 140.763 187 208 187 208z" />
    <glyph glyph-name="braceleft" unicode="{" 
d="M555 600c89 -23 208 -94 208 -219c0 -17 -1.824 -34.035 -5 -51c-18.945 -101.186 -86 -198 -120 -276c-3.562 -8.1644 -4.919 -16.0135 -6 -23c-0.93 -6.01 -2 -11 -2 -16c0 -54 63 -74 177 -79c-15.667 -72.667 -31.333 -145.333 -47 -218
c-132 6 -292.746 7.517 -364 116c-22.231 33.846 -32 70 -32 106c0 15 2.059 30.9886 5 46c14.288 72.9423 57 147 93 212c20 36 32.132 65.976 37 92c2.056 10.989 3 21 3 30c0 107 -131 127 -239 159c7 37.667 14 75.333 21 113c8.667 43.667 17.333 87.333 26 131
c131 35 284.865 54.689 309 188c2.167 11.967 4 26 4 41c0 16 -2 33 -5 52c-7 46 -17 96 -17 148c0 21 1.981 43 6 64c9.954 52.01 35.842 104.17 86 152c113.64 108.37 275 110 409 116c-12.67 -72.67 -25.33 -145.33 -38 -218c-128 -5 -201.215 -27.72 -212 -96
c-1.255 -7.95 -2 -17 -2 -26c0 -61 19 -130 19 -204c0 -22 -1.192 -44.962 -6 -68c-3.125 -14.973 -7.055 -29.98 -13 -46c-47.438 -127.836 -197 -203 -295 -226z" />
    <glyph glyph-name="bar" unicode="|" 
d="M312 152c71.554 364.891 177 959 233 1247l18 93h271c-9.333 -48.33 -18.667 -96.67 -28 -145c-54 -277 -141 -789 -206 -1123l-30 -150c-22 -115 -33 -171 -58 -272c-90.667 0.333 -181.333 0.667 -272 1c16 62 25.226 104.957 36 160
c9.192 46.9615 19.131 102.975 36 189z" />
    <glyph glyph-name="braceright" unicode="}" 
d="M569 600c-89 23 -207 96 -207 220v6c0 16 2.028 30.994 5 46c20.192 101.962 88.438 195.84 119 276c3.044 7.98 4.919 15.01 6 22c0.93 6.01 2 12 2 17c0 55 -62 74 -176 79c15 72.67 30 145.33 45 218c133 -6 294 -8 366 -116c22 -33 30 -67 30 -102
c0 -17 -1.874 -33.02 -5 -50c-13.458 -73.1 -56 -147 -92 -212c-20 -36 -32.132 -66.976 -37 -93c-2.056 -10.989 -3 -21 -3 -30c0 -107 132 -126 240 -158c-8.667 -43.667 -17.333 -87.333 -26 -131c-7.667 -37.667 -15.333 -75.333 -23 -113
c-131 -35 -281.805 -55.256 -309 -188c-2.873 -14.025 -4 -29 -4 -45c0 -15 1 -31 4 -48c7 -46 17 -96 17 -148c0 -21 -1.981 -43.0036 -6 -64c-9.954 -52.0088 -34.842 -104.166 -85 -152c-113.64 -108.375 -276 -110 -410 -116c13 72.667 26 145.333 39 218
c128 6 199.61 27.77 211 96c1.163 6.9688 1 14 2 22v7c0 60 -18 128 -18 201c0 22 1.192 44.962 6 68c3.125 14.973 7.217 30.92 13 46c48.81 127.276 198 201 296 224z" />
    <glyph glyph-name="at" unicode="@" 
d="M572 496c-4.104 -21.98 -6 -41 -6 -59c0 -46 14 -75 46 -75c98 0 133 118 161 168c4.333 22.667 8.667 45.333 13 68c-41 44 -41 60 -90 60c-50 0 -101.572 -41.896 -124 -162zM779 267c-71 -63 -99 -105 -225 -105c-142 0 -211 110 -211 243c0 26 2.88 53.023 8 80
c41.033 216.179 172 373 356 373c69 0 91 -26 118 -60c8 41 13 83 13 121c0 98 -34 176 -148 176c-165 0 -340.044 -172.802 -421 -595c-14.183 -73.965 -22 -144 -22 -208c0 -203 76 -345 247 -345c48 0 104 12 168 48c12.667 -63.6667 25.333 -127.333 38 -191
c-88 -42 -187 -57 -257 -57c-309 0 -422 250 -422 527c0 73 7.9333 148.013 22 221c97.538 506.09 373 805 685 805c248 0 335 -173 335 -351c0 -37 -4 -75 -11 -111c-21.33 -110 -42.67 -220 -64 -330c-7 -36 -16 -81 -16 -117c0 -39 8 -78 31 -126l-201 -96
c-14 36 -17 44 -23 98z" />
    <glyph glyph-name="brokenbar" unicode="&#xa6;" 
d="M429 779c44 239 87 471 116 620l18 93h271c-9.333 -48.33 -18.667 -96.67 -28 -145c-28 -145 -66 -354 -105 -568h-272zM659 539c-21 -113 -41 -221 -59 -315l-30 -150c-22 -115 -33 -171 -58 -272c-90.667 0.333 -181.333 0.667 -272 1c16 62 25.226 104.957 36 160
c9.192 46.9615 19.052 102.99 36 189c22.067 111.987 47 247 73 387h274z" />
    <glyph glyph-name="copyright" unicode="&#xa9;" 
d="M607 1033h3c7 0 13.01 2.24 25 2c75 -1.5 151 -73 171 -225c-50.667 -19 -101.333 -38 -152 -57c-7 57 -5 106 -51 106c-76 0 -158.298 -170.143 -194 -349c-10.787 -54.042 -20 -133 -20 -204c0 -91 15 -171 62 -171c62 0 94 47 132 138c39.667 -13 79.333 -26 119 -39
c-67 -141 -147 -251 -271 -251c-155 0 -195 151 -195 300c0 76 10.77 150.045 21 204c38.141 201.159 106.162 324.894 147 387c51.202 77.866 127 145 203 159zM655 1202c-166 0 -383.143 -297.17 -460 -690c-18.79 -96.041 -28 -188 -28 -270c0 -252 83 -423 219 -423
c185 0 385 299 461 691c1 5.667 2 11.333 3 17c15 77 22 150 22 218c0 271 -107 457 -217 457zM684 1355c230 0 338 -226 338 -533c0 -99 -11.26 -204.95 -33 -316c-89.049 -454.792 -343 -842 -633 -842c-225 0 -330 224 -330 529c0 100 11.0676 207.987 33 320
c89.275 455.946 337 842 625 842z" />
    <glyph glyph-name="registered" unicode="&#xae;" 
d="M646 722c3.324 21.946 4 41 4 58c0 83 -35 111 -87 111h-9c-22.667 -117.667 -45.333 -235.333 -68 -353c21 -7 39 -10 54 -10c58 0 79.904 48.019 96 129c3.976 20.005 6.357 40.951 10 65zM543 0c-26 82 -43 316 -57 378c-19 3 -17 -1 -31 3
c-25 -127 -33.287 -177.946 -44 -233c-7.192 -36.962 -15 -75 -29 -138c-49.333 0.6667 -98.667 1.3333 -148 2c60 309 192 995 192 995c49 35 102.162 30.71 155 36c8.015 0.8 16 1 24 1c134 0 181 -109 181 -244c0 -37 -4 -77 -10 -116c-22 -114 -69 -251 -143 -292
c23 -94 44 -280 68 -300c-52.667 -30.6667 -105.333 -61.3333 -158 -92zM655 1202c-166 0 -383.143 -297.17 -460 -690c-18.79 -96.041 -28 -188 -28 -270c0 -252 83 -423 219 -423c185 0 385 299 461 691c1 5.667 2 11.333 3 17c15 77 22 150 22 218
c0 271 -107 457 -217 457zM684 1355c230 0 338 -226 338 -533c0 -99 -11.26 -204.95 -33 -316c-89.049 -454.792 -343 -842 -633 -842c-225 0 -330 224 -330 529c0 100 11.0676 207.987 33 320c89.275 455.946 337 842 625 842z" />
    <glyph glyph-name="germandbls" unicode="&#xdf;" 
d="M187 1003c30.232 155.95 179 325 386 325c208 0 354 -66 354 -243c0 -23 -3 -49 -8 -76c-24 -123 -83 -194 -173 -230c118 -21 237 -92 237 -284c0 -34 -3.94 -72.012 -12 -114c-58.563 -305.083 -202 -383 -422 -383c-147 0 -206 59 -206 183c0 34 5 73 13 117l6 24
c67.667 -0.667 135.333 -1.333 203 -2c-4 -22 -8 -43 -8 -62c0 -34 12 -59 53 -59c54 0 91.604 47.887 120 196c3.065 15.987 5 32 5 48c0 96 -64 191 -311 191c13.333 68.667 26.667 137.333 40 206c165 0 188.412 65.647 210 163c1.784 8.04 2 16 2 23
c0 68 -67 96 -120 96c-67 0 -106.148 -48.97 -119 -115c-30.35 -155.931 -67.327 -370.135 -104 -557c-7.856 -40.028 -14.096 -79.981 -22 -119c-16.197 -79.96 -33.024 -154.987 -64 -214c-43.033 -81.9825 -155 -126 -216 -154
c-14.6667 82.6667 -29.3333 165.333 -44 248c22 10 43 24 56 50s20 62 35 137c3 15 6.165 30.968 10 50c37.613 186.66 65.26 380.95 99 555z" />
    <glyph glyph-name="ampersand" unicode="&#x26;" 
d="M671 94c-103 -82 -211 -116 -331 -116c-179 0 -326 68 -326 277c0 34 4.0477 70.991 12 112c37.2232 191.956 158 303 283 391c-64 72 -102 159 -102 237c0 14 1.141 27.97 4 42c43.117 211.55 222 310 402 310c148 0 270 -53 270 -202c0 -19 -1.792 -40.04 -6 -63
c-35.249 -192.305 -168 -298 -294 -382c52.667 -100 105.333 -200 158 -300c16 17 27.808 46.038 35 83c6.817 35.035 10 78 10 125c0 14 -1 29 -1 44h244c-56 -288 -178 -406 -178 -406c27.667 -48 55.333 -96 83 -144c-64.333 -44.6667 -128.667 -89.3333 -193 -134
c-23.333 42 -46.667 84 -70 126zM391 573c-54 -43 -99.954 -129.009 -114 -203c-3.987 -21.002 -7 -43 -7 -64c0 -66 26 -125 113 -125c86 0 154 27 193 57c-61.667 111.667 -123.333 223.333 -185 335zM488 867c70 48 130.61 127.77 141 189c1.182 6.96 2 15 2 22
c0 36 -17 68 -63 68c-58 0 -107.259 -50.16 -116 -93c-3.685 -18.06 -5 -35 -5 -52c0 -50 15 -94 41 -134z" />
    <glyph glyph-name="uni00B5" unicode="&#xb5;" 
d="M241 8c-27.667 -135.333 -55.333 -270.667 -83 -406c-83.3333 1 -166.667 2 -250 3c42.3286 207.977 86.3539 415.689 127 624c16 82 35.2325 178.955 54 275c38.476 196.906 74 393 74 469c0 7 0 14 -1 19c84.333 9.33 168.667 18.67 253 28v-10
c0 -100 -55 -358 -122 -712v-6c0 -62 16 -86 98 -86c198 0 254 164 264 212l114 582h257c-45.333 -231.333 -90.667 -462.667 -136 -694c-1 -4 -1 -7 -1 -11c0 -50 48 -109 92 -129c-59.333 -61 -118.667 -122 -178 -183c-58 29 -92 75 -103 125
c-90 -77 -212 -103 -363 -106h-9c-29 0 -58 2 -87 6z" />
    <glyph glyph-name="paragraph" unicode="&#xb6;" 
d="M824 1041c4.667 23.67 9.333 47.33 14 71h-89h-28c-58 -296 -112.042 -591.992 -170 -888c-18.013 -91.997 -82 -226 -128 -265l-186 102c30 42 67 80 83 160c14.333 73 28.667 146 43 219c-140 10 -238 128 -238 332c0 46 5.115 96.977 16 152
c18.192 91.96 54.132 183.87 121 250c142.28 140.72 316 154 541 154c133 0 170 -8 288 -8c-86.33 -443 -172.667 -886 -259 -1329c-72.333 -0.33333 -144.667 -0.66667 -217 -1c66 342 124 614 209 1051z" />
    <glyph glyph-name="periodcentered" unicode="&#xb7;" 
d="M414 700h315c-20.333 -104.333 -40.667 -208.667 -61 -313h-315c20.333 104.333 40.667 208.667 61 313z" />
    <glyph glyph-name="questiondown" unicode="&#xbf;" 
d="M819 837h-352c17.333 90 34.667 180 52 270h352c-17.333 -90 -34.667 -180 -52 -270zM891 -108c-174 -127 -356 -130 -455 -130h-13c-225 0 -359 99 -359 275c0 25 2.79004 51.04 8 79c31.7197 170.229 148.2 235.715 249 306c67.1318 46.8086 133 118 150 206
c3 16.333 6 32.667 9 49c90.667 -0.333008 181.333 -0.666992 272 -1c-2.66699 -14.667 -5.33301 -29.333 -8 -44c-28 -146 -149.143 -258.812 -230 -320c-96.1689 -72.7754 -173.808 -112.038 -191 -199c-2.9668 -15.0098 -4 -30 -4 -43c0 -69 40 -116 131 -116
c50 0 166 1 304 140c45.667 -67.3301 91.333 -134.67 137 -202z" />
    <glyph glyph-name="dieresis" unicode="&#xa8;" 
d="M731 1359l282 -3c-15.667 -80 -31.333 -160 -47 -240c-93.667 1 -187.333 2 -281 3c15.333 80 30.667 160 46 240zM311 1359h279c-15.333 -80 -30.667 -160 -46 -240h-279c15.333 80 30.667 160 46 240z" />
    <glyph glyph-name="acute" unicode="&#xb4;" 
d="M404 1441c152 48 348 160 484 268c33.667 -57.33 67.333 -114.67 101 -172c-133 -112 -377 -223 -529 -270c-18.667 58 -37.333 116 -56 174z" />
    <glyph glyph-name="degree" unicode="&#xb0;" 
d="M744 1535c-53 0 -90.05 -31.65 -98 -62c-0.798 -3.04 -1 -5 -1 -8c0 -28 28 -55 75 -55c52 0 90.05 32.65 98 63c0.798 3.04 1 6 1 9c0 28 -27 53 -75 53zM457 1473c23.096 115.98 168 204 316 204c135 0 238 -73 238 -174c0 -10 -1.04 -19.99 -3 -30
c-22.481 -114.9 -153 -195 -313 -195c-140 0 -241 68 -241 166c0 9 1.008 19 3 29z" />
    <glyph glyph-name="macron" unicode="&#xaf;" 
d="M985 1657c-12.667 -64.67 -25.333 -129.33 -38 -194c-5.655 0 -11.349 0.19 -17 0c-58 -2 -157 -7 -231 -7s-166 1 -234 3c-5.999 0.18 -12.007 0.67 -18 1c12.667 65.67 25.333 131.33 38 197c6.274 -0.66 12.697 -1.81 19 -2c65 -2 179 -3 271 -3c61 0 148 5 193 5h17z
" />
    <glyph glyph-name="dotlessi" unicode="&#x131;" 
d="M481 1039c83.333 -8.67 166.667 -17.33 250 -26c-53 -273 -133 -687 -133 -687c-3 -17 -5 -34 -5 -51c0 -49 18 -93 86 -93c93 0 160 33 231 91c20 -63.333 40 -126.667 60 -190c-100 -71 -256 -101 -380 -101c-192 0 -269 79 -269 203c0 23 3 47 8 73
c31 159.667 62 319.333 93 479c0 0 -34 -34 -134 -82c-37 61.333 -74 122.667 -111 184c124 40 249 98 304 200z" />
    <glyph glyph-name="Amacron" unicode="&#x100;" 
d="M1025 1571c-12.667 -64.6699 -25.333 -129.33 -38 -194c-5.65527 0 -11.3486 0.19043 -17 0c-58 -2 -157 -7 -231 -7s-166 1 -234 3c-5.99902 0.179688 -12.0068 0.669922 -18 1c12.667 65.6699 25.333 131.33 38 197c6.27441 -0.660156 12.6973 -1.80957 19 -2
c65 -2 179 -3 271 -3c61 0 148 5 193 5h17zM674 504v7c0 114 -38 262 -38 394c0 32 2 63 8 93c-39 -168 -172 -373 -237 -512c63 13 183 13 267 18zM601 1325h224c49 -442 104 -877 147 -1325h-276c-8 94 -15 188 -23 281c-153 -3 -237 1 -363 -29l-48 -90
c-32 -61 -60 -119 -71 -162h-260c16 61 55 143 97 223c191 367.333 382 734.667 573 1102z" />
    <glyph glyph-name="amacron" unicode="&#x101;" 
d="M973 1384.3c-12.667 -64.6699 -25.333 -129.33 -38 -194c-5.65527 0 -11.3486 0.19043 -17 0c-58 -2 -157 -7 -231 -7s-166 1 -234 3c-5.99902 0.180664 -12.0068 0.669922 -18 1c12.667 65.6699 25.333 131.33 38 197c6.27441 -0.660156 12.6973 -1.80957 19 -2
c65 -2 179 -3 271 -3c61 0 148 5 193 5h17zM343 513c-18 -90 -25 -155 -25 -202c0 -121 49 -122 95 -122c110 0 228 186 257 242c19.333 99.333 38.667 198.667 58 298c-28 42 -87 90 -151 90c-66 0 -181 -40 -234 -306zM891 316c-3.3291 -16.9346 -5 -33 -5 -49
c0 -71 31 -129 70 -166c-52.667 -44 -105.333 -88 -158 -132c-41 37 -98 103 -98 196c0 7 0 13 1 20c-81 -136 -196 -196 -378 -196c-135 0 -254 62 -254 313c0 66 8.72754 146.053 27 241c75.8672 394.215 334 485 480 485c81 0 164 -31 202 -87
c6.66699 28 13.333 56 20 84l230 -12c-45.6367 -232.183 -91.3721 -464.867 -137 -697z" />
    <glyph glyph-name="Cacute" unicode="&#x106;" 
d="M504 1507c152 48 348 160 484 268c33.667 -57.3301 67.333 -114.67 101 -172c-133 -112 -377 -223 -529 -270c-18.667 58 -37.333 116 -56 174zM710 1128c-115 0 -274.949 -135.82 -345 -500c-11.1514 -57.9707 -16 -110 -16 -157c0 -176 70 -273 154 -273h14
c124 0 175 64 248 194c73.333 -45.667 146.667 -91.333 220 -137c-105 -158 -296 -258 -486 -258h-3c-111 0 -237 25 -313 119c-66 86 -99 192 -99 323c0 60 7.04883 124.991 21 197c50.1738 258.966 161.952 418.04 229 496c92.9336 108.06 247 200 422 200
c140 0 301 -63 358 -225c-85.3301 -41.6699 -170.667 -83.3301 -256 -125c-26 124 -62 146 -148 146z" />
    <glyph glyph-name="cacute" unicode="&#x107;" 
d="M506 1225c152 48 348 160 484 268c33.667 -57.3301 67.333 -114.67 101 -172c-133 -112 -377 -223 -529 -270c-18.667 58 -37.333 116 -56 174zM355 528c-9.80469 -49.0381 -14 -91 -14 -126c0 -194 125 -199 165 -199h12c100 0 167 66 231 147
c66.667 -44.667 133.333 -89.333 200 -134c-97 -150 -243 -223 -461 -223c-104 0 -226 8 -308 80c-73 67 -103 157 -103 269c0 56 7.99707 118.001 21 185c65.9863 340.003 274 491 589 491c182 0 298 -58 382 -142c-57.3301 -66.667 -114.667 -133.333 -172 -200
c-20 44 -129 131 -269 131c-147 0 -244.432 -136.116 -273 -279z" />
    <glyph glyph-name="Ccircumflex" unicode="&#x108;" 
d="M857 1771c107.333 -97 214.667 -194 322 -291c-56.3301 -52 -112.667 -104 -169 -156l-201 201l-258 -189l-117 138zM710 1128c-115 0 -274.949 -135.82 -345 -500c-11.1514 -57.9707 -16 -110 -16 -157c0 -176 70 -273 154 -273h14c124 0 175 64 248 194
c73.333 -45.667 146.667 -91.333 220 -137c-105 -158 -296 -258 -486 -258h-3c-111 0 -237 25 -313 119c-66 86 -99 192 -99 323c0 60 7.04883 124.991 21 197c50.1738 258.966 161.952 418.04 229 496c92.9336 108.06 247 200 422 200c140 0 301 -63 358 -225
c-85.3301 -41.6699 -170.667 -83.3301 -256 -125c-26 124 -62 146 -148 146z" />
    <glyph glyph-name="ccircumflex" unicode="&#x109;" 
d="M780 1489c107.333 -97 214.667 -194 322 -291c-56.3301 -52 -112.667 -104 -169 -156l-201 201l-258 -189l-117 138zM355 528c-9.80469 -49.0381 -14 -91 -14 -126c0 -194 125 -199 165 -199h12c100 0 167 66 231 147c66.667 -44.667 133.333 -89.333 200 -134
c-97 -150 -243 -223 -461 -223c-104 0 -226 8 -308 80c-73 67 -103 157 -103 269c0 56 7.99707 118.001 21 185c65.9863 340.003 274 491 589 491c182 0 298 -58 382 -142c-57.3301 -66.667 -114.667 -133.333 -172 -200c-20 44 -129 131 -269 131
c-147 0 -244.432 -136.116 -273 -279z" />
    <glyph glyph-name="Cdotaccent" unicode="&#x10a;" 
d="M713 1669h284c-15.333 -82 -30.667 -164 -46 -246h-285c15.667 82 31.333 164 47 246zM710 1128c-115 0 -274.949 -135.82 -345 -500c-11.1514 -57.9707 -16 -110 -16 -157c0 -176 70 -273 154 -273h14c124 0 175 64 248 194c73.333 -45.667 146.667 -91.333 220 -137
c-105 -158 -296 -258 -486 -258h-3c-111 0 -237 25 -313 119c-66 86 -99 192 -99 323c0 60 7.04883 124.991 21 197c50.1738 258.966 161.952 418.04 229 496c92.9336 108.06 247 200 422 200c140 0 301 -63 358 -225c-85.3301 -41.6699 -170.667 -83.3301 -256 -125
c-26 124 -62 146 -148 146z" />
    <glyph glyph-name="cdotaccent" unicode="&#x10b;" 
d="M636 1433.9h284c-15.333 -82 -30.667 -164 -46 -246h-285c15.667 82 31.333 164 47 246zM355 528c-9.80469 -49.0381 -14 -91 -14 -126c0 -194 125 -199 165 -199h12c100 0 167 66 231 147c66.667 -44.667 133.333 -89.333 200 -134c-97 -150 -243 -223 -461 -223
c-104 0 -226 8 -308 80c-73 67 -103 157 -103 269c0 56 7.99707 118.001 21 185c65.9863 340.003 274 491 589 491c182 0 298 -58 382 -142c-57.3301 -66.667 -114.667 -133.333 -172 -200c-20 44 -129 131 -269 131c-147 0 -244.432 -136.116 -273 -279z" />
    <glyph glyph-name="Ccaron" unicode="&#x10c;" 
d="M765 1346c-102.667 99 -205.333 198 -308 297l171 138c61.667 -63 123.333 -126 185 -189l279 201l108 -156zM710 1128c-115 0 -274.949 -135.82 -345 -500c-11.1514 -57.9707 -16 -110 -16 -157c0 -176 70 -273 154 -273h14c124 0 175 64 248 194
c73.333 -45.667 146.667 -91.333 220 -137c-105 -158 -296 -258 -486 -258h-3c-111 0 -237 25 -313 119c-66 86 -99 192 -99 323c0 60 7.04883 124.991 21 197c50.1738 258.966 161.952 418.04 229 496c92.9336 108.06 247 200 422 200c140 0 301 -63 358 -225
c-85.3301 -41.6699 -170.667 -83.3301 -256 -125c-26 124 -62 146 -148 146z" />
    <glyph glyph-name="ccaron" unicode="&#x10d;" 
d="M711 1058c-102.667 99 -205.333 198 -308 297l171 138c61.667 -63 123.333 -126 185 -189l279 201l108 -156zM355 528c-9.80469 -49.0381 -14 -91 -14 -126c0 -194 125 -199 165 -199h12c100 0 167 66 231 147c66.667 -44.667 133.333 -89.333 200 -134
c-97 -150 -243 -223 -461 -223c-104 0 -226 8 -308 80c-73 67 -103 157 -103 269c0 56 7.99707 118.001 21 185c65.9863 340.003 274 491 589 491c182 0 298 -58 382 -142c-57.3301 -66.667 -114.667 -133.333 -172 -200c-20 44 -129 131 -269 131
c-147 0 -244.432 -136.116 -273 -279z" />
    <glyph glyph-name="Dcaron" unicode="&#x10e;" 
d="M585 1349c-102.667 99 -205.333 198 -308 297l171 138c61.667 -63 123.333 -126 185 -189l279 201l108 -156zM547 1127h-30c-16 0 -28 0 -46 -3c-4 -26 -9.0459 -55.9902 -15 -87c-12.0928 -62.9824 -17.8525 -84.0283 -31 -153c-58.3486 -306.123 -118 -588 -138 -686
c87 -3 39 -3 99 -3h3c40 0 183.616 2.23926 280 158c27.8877 45.0693 53.0615 135.988 64 191c17.0957 85.9814 24 163 24 231c0 231 -89 352 -210 352zM20 128c11 55 94 452 156 773c5 25.333 10 50.667 15 76c25 129 45 252 53 340c83 8 129 14 228 14
c295 0 403 -71 498 -265c37 -80 56 -181 56 -290c0 -63 -6.12012 -129.978 -19 -196c-64.5762 -330.887 -278.95 -560.558 -524 -583c-55.9883 -5.12793 -107 -7 -162 -7c-84 0 -216 7 -330 7c7 34 7 33 29 131z" />
    <glyph glyph-name="emacron" unicode="&#x113;" 
d="M1017 1383.4c-12.667 -64.6699 -25.333 -129.33 -38 -194c-5.65527 0 -11.3486 0.189453 -17 0c-58 -2 -157 -7 -231 -7s-166 1 -234 3c-5.99902 0.179688 -12.0068 0.669922 -18 1c12.667 65.6699 25.333 131.33 38 197c6.27344 -0.660156 12.6973 -1.81055 19 -2
c65 -2 179 -3 271 -3c61 0 148 5 193 5h17zM379 606c25 4 60 5 98 5h58c69 0 137.034 1.94727 168 22c20.0225 12.9658 35 45 35 78c0 51 -35 107 -143 107c-102 0 -187 -96 -216 -212zM632 1021c281 0 359 -169 359 -304c0 -39 -6.14062 -73.9512 -16 -102
c-93.3301 -265.525 -506 -194 -637 -219v-13c0 -105 69 -187 157 -187c106 0 220 27 318 99l102 -180c-170 -90 -227 -125 -466 -125c-238 0 -361 147 -361 376c0 47 4.81836 97.0361 15 150c55.0156 286.186 246 505 529 505z" />
    <glyph glyph-name="Emacron" unicode="&#x112;" 
d="M988 1616c-12.667 -64.6699 -25.333 -129.33 -38 -194c-5.65527 0 -11.3486 0.19043 -17 0c-58 -2 -157 -7 -231 -7s-166 1 -234 3c-5.99902 0.179688 -12.0068 0.669922 -18 1c12.667 65.6699 25.333 131.33 38 197c6.27441 -0.660156 12.6973 -1.80957 19 -2
c65 -2 179 -3 271 -3c61 0 148 5 193 5h17zM283 1319c57 4 127 4 205 4h98h110c149 0 285 -3 359 -3h16c-13.3301 -67.3301 -26.6699 -134.67 -40 -202h-529c-17.333 -89.6699 -34.667 -179.333 -52 -269h338c-13 -67.667 -26 -135.333 -39 -203h-338
c-2 -10.333 -4 -20.667 -6 -31c-40 -207 -67 -332 -82 -411c138.667 0.666992 277.333 1.33301 416 2c56 0 130 27 130 27c11.333 -66.333 22.667 -132.667 34 -199c-51 -13 -96 -34 -194 -34h-682c85.333 439.667 170.667 879.333 256 1319z" />
    <glyph glyph-name="asterisk" unicode="*" 
d="M489 792c11.667 135.333 23.333 270.67 35 406c98 0.67 196 1.33 294 2c-36.333 -136 -72.667 -272 -109 -408c105.667 60 211.333 120 317 180c22 -82.667 44 -165.333 66 -248l-384 -114c74.333 -90 148.667 -180 223 -270
c-84.667 -58.667 -169.333 -117.333 -254 -176c-42.333 118 -84.667 236 -127 354c-90.667 -119.333 -181.333 -238.667 -272 -358l-172 172c105.333 93.333 210.667 186.667 316 280c-109.333 31.333 -218.667 62.667 -328 94c47 86.667 94 173.333 141 260
c84.667 -58 169.333 -116 254 -174z" />
    <glyph glyph-name="uni00A0" unicode="&#xa0;" 
 />
    <glyph glyph-name="ordfeminine" unicode="&#xaa;" 
d="M404 836c-1.057 -5.989 -2 -13 -2 -18c0 -39 30 -51 61 -51c60 0 117 55 133 85c1.667 8.667 3.333 17.333 5 26c-16 22 -50 41 -85 41c-36 0 -101.568 -23.905 -112 -83zM727 836c-3.058 -15.989 -5 -29 -5 -41c0 -26 8 -45 26 -61l-78 -81c-25 22 -42 27 -57 66
c-50 -42 -99 -60 -199 -60c-84 0 -154 57 -154 139c0 10 1.06 19.989 3 30c9.288 47.942 35.722 95.331 74 128c61.544 52.53 122 71 200 71c35 0 70 -12 88 -26c2 11 3 20 3 29c0 65 -51 78 -80 78c-63 0 -102 -32 -140 -74c-32 19.67 -64 39.33 -96 59
c72 98 164 125 262 127c110 0 192 -56 192 -159c0 -13 -1 -27 -4 -42c-12.177 -60.885 -23.336 -122.015 -35 -183zM706 583c-9.333 -50.333 -18.667 -100.667 -28 -151h-17c-58 -2 -128 -2 -202 -2h-81c-53 0 -155 0 -203 3c9.667 50.667 19.333 101.333 29 152h19
c65 -2 210 -2 302 -2h181z" />
    <glyph glyph-name="logicalnot" unicode="&#xac;" 
d="M134 654c45 2 96 3 146 3c100 0 200 -3 268 -3h119c82 0 234 -1 341 -2h18c-10.33 -52 -20.67 -104 -31 -156h2c-20.333 -105.333 -40.667 -210.667 -61 -316h-250c15 76.667 30 153.333 45 230h-232c-43 0 -134 3 -234 3c-57 0 -116 -1 -172 -4
c7.667 40.667 15.333 81.333 23 122z" />
    <glyph glyph-name="uni00AD" unicode="&#xad;" 
d="M134 654c45 2 96 3 146 3c100 0 200 -3 268 -3h119c82 0 234 -1 341 -2h18c-16 -81.667 -32 -163.333 -48 -245h-18c-134 3 -336 3 -461 3c-43 0 -134 3 -234 3c-57 0 -116 -1 -172 -4c7.667 40.667 15.333 81.333 23 122z" />
    <glyph glyph-name="uni00B2" unicode="&#xb2;" 
d="M487.216 1118.2c-47.1836 -7.65137 -94.3672 -15.3027 -141.55 -22.9541c-0.546875 7.10547 -1.09375 15.8496 -1.09375 25.1406c0 12.0234 0.170898 25.2236 2.18652 36.0703c0.918945 4.94531 1.21191 9.26855 2.18555 13.6631
c22.9863 103.698 116.41 189.645 256.321 189.645c126.247 0 196.203 -44.2686 196.203 -149.201c0 -18.0352 -1.77637 -37.6846 -6.0127 -59.0254c-21.4531 -108.071 -96.7344 -165.051 -149.748 -211.505c-36.0703 -30.0596 -192.377 -145.923 -198.389 -176.528h282.008
c-7.65137 -39.168 -15.3027 -78.335 -22.9541 -117.503h-470.013c3.2793 16.3955 5.37402 33.9023 8.74414 51.9199c2.66113 14.2227 6.39648 29.0273 12.0234 44.2686c19.6504 53.2168 74.2129 108.358 144.283 163.411c80.208 63.0176 240.233 153.192 259.054 246.483
c2.09766 10.4014 3.2793 20.2217 3.2793 28.9658c0 43.1758 -25.6875 63.3975 -72.6885 63.3975c-40.4424 0 -92.2744 -24.1846 -103.293 -78.7002c-1.5498 -7.66797 -2.7334 -15.8496 -2.7334 -25.1396c0 -7.10547 0.546875 -14.7568 2.18652 -22.4082z" />
    <glyph glyph-name="uni00B3" unicode="&#xb3;" 
d="M272.247 841.545h135.828c0 -65.0615 53.0322 -76.9893 96.3242 -76.9893c64.9375 0 114.961 50.9209 124.463 101.929c2.2207 11.917 3.24707 22.2295 3.24707 31.4463c0 37.4102 -16.8154 54.7051 -37.3389 69.9414
c-27.6533 20.5283 -73.5957 29.8193 -116.888 29.8193c7.03516 36.1455 14.0693 72.29 21.1045 108.436h8.6582c69.8086 0 141.358 31.7383 153.145 101.929c0.634766 3.7793 1.08301 8.13281 1.08301 11.9277c0 29.2773 -24.3516 49.3379 -69.2676 49.3379
c-58.4434 0 -120.676 -24.3975 -134.204 -43.916c-24.8926 30.9043 -49.7852 61.8076 -74.6777 92.7119c4.3291 8.13281 74.1367 58.5547 225.658 58.5547h5.95215c71.4316 0 187.237 -33.0723 187.237 -132.29c0 -8.6748 -0.948242 -17.377 -2.70605 -27.1094
c-12.5635 -69.5596 -82.7959 -145.846 -138.533 -156.146c76.3018 -26.5664 111.476 -78.6152 111.476 -148.014c0 -15.1816 -1.6543 -30.8984 -4.87012 -47.1699c-26.7764 -135.492 -101.194 -216.87 -289.514 -216.87c-152.604 0 -206.177 78.6152 -206.177 192.473z" />
    <glyph glyph-name="cedilla" unicode="&#xb8;" 
d="M608 56c-3 -8 -16 -72 -17 -75c85 -4 154 -49 154 -138c0 -12 -1.241 -24.954 -4 -38c-27.374 -129.452 -153 -203 -311 -203c-66 0 -155 18 -204 54c29.667 49.333 59.333 98.667 89 148c30 -18 71 -30 122 -30c36 0 74 12 84 50v2c1 3 1 7 1 10c0 25 -20 45 -62 45
c-48 0 -81 -2 -111 -12c12 62.6667 24 125.333 36 188c74.333 -0.3333 148.667 -0.6667 223 -1z" />
    <glyph glyph-name="uni00B9" unicode="&#xb9;" 
d="M606.942 1371.36c40.9697 -7.91309 81.9385 -15.8252 122.907 -23.7383c-43.958 -226.121 -87.916 -452.243 -131.875 -678.364h-136.095l97.5879 507.454c-44.8379 -44.8369 -108.665 -99.6973 -184.625 -138.204c-17.9355 37.6279 -35.8701 75.2568 -53.8057 112.885
c177.768 81.2344 280.103 212.055 285.905 219.968z" />
    <glyph glyph-name="ordmasculine" unicode="&#xba;" 
d="M706 583c-9.333 -50.333 -18.667 -100.667 -28 -151h-17c-58 -2 -128 -2 -202 -2h-81c-53 0 -155 0 -203 3c9.667 50.667 19.333 101.333 29 152h19c65 -2 210 -2 302 -2h181zM600 793c38 28 54.65 87.45 72 154c0.794 3.039 1.192 4.962 2 8c5.2 19.6 6 39 6 57
c0 57 -23 97 -90 97c-104 0 -150.483 -76.91 -172 -189c-3.069 -15.986 -4 -31 -4 -45c0 -66 33 -109 101 -109c38 0 56 8 85 27zM493 656c-182 0 -256 76 -256 192c0 20 1.871 41.025 6 63c37.812 201.22 157 307 358 307c135 0 203.967 -38.02 238 -109
c11.989 -25.01 17 -57 17 -89c0 -23 -2.862 -45.027 -7 -67c-29.032 -154.176 -123 -297 -354 -297h-2z" />
    <glyph glyph-name="onequarter" unicode="&#xbc;" 
d="M470 1376c39.333 -8 78.667 -16 118 -24c-44.667 -228.67 -89.333 -457.333 -134 -686h-130l99 513c-43 -45 -104 -101 -178 -140l-51 114c171 82 270 215 276 223zM754 329c11.333 59 22.667 118 34 177c-54 -70 -119 -131 -173 -178c46.333 0.333 92.667 0.667 139 1z
M455 304c23 25 307 263 378 408c45.333 0.333 90.667 0.667 136 1l-75 -384h69c-7.333 -38.333 -14.667 -76.667 -22 -115h-69c-14 -71.333 -28 -142.667 -42 -214h-140c13.667 71 27.333 142 41 213c-81.667 -0.667 -163.333 -1.333 -245 -2c-10.333 31 -20.667 62 -31 93z
M-6 85l535 615l430 682c57.33 -34 114.67 -68 172 -102l-515 -631l-451 -681z" />
    <glyph glyph-name="onehalf" unicode="&#xbd;" 
d="M470 1376c39.333 -8 78.667 -16 118 -24c-44.667 -228.67 -89.333 -457.333 -134 -686h-130l99 513c-43 -45 -104 -101 -178 -140l-51 114c171 82 270 215 276 223zM716 466c-45.333 -7.333 -90.667 -14.667 -136 -22c-2 15 -2.385 40.077 1 59
c0.897 5.016 1.104 9.98 2 14c22.588 101.353 113 184 248 184c121 0 189 -43 189 -145c0 -18 -2 -37 -6 -58c-20 -105 -94 -161 -145 -206c-35 -29 -186 -142 -192 -172h272c-7.333 -38 -14.667 -76 -22 -114h-453c3 16 5.59 33.0878 9 51
c2.676 14.0541 5.229 27.9163 11 43c19.776 51.69 72.611 105.497 140 159c77.544 61.565 231.904 149.019 250 240c1.989 10.002 3 20 3 28c0 43 -25 62 -70 62c-39 0 -87.941 -24.244 -99 -77c-2.736 -13.05 -5 -28 -2 -46zM-18 97l535 615l430 682
c57.33 -34 114.67 -68 172 -102l-516 -631l-450 -681z" />
    <glyph glyph-name="threequarters" unicode="&#xbe;" 
d="M754 329c11.333 59 22.667 118 34 177c-54 -70 -119 -131 -173 -178c46.333 0.333 92.667 0.667 139 1zM455 304c23 25 307 263 378 408c45.333 0.333 90.667 0.667 136 1l-75 -384h69c-7.333 -38.333 -14.667 -76.667 -22 -115h-69c-14 -71.333 -28 -142.667 -42 -214
h-140c13.667 71 27.333 142 41 213c-81.667 -0.667 -163.333 -1.333 -245 -2c-10.333 31 -20.667 62 -31 93zM92 844h134c-1 -7 -2 -14 -2 -20c0 -47 39 -58 77 -58c64 0 113.73 50.878 123 102c2.17 11.967 3 23 3 32c0 37 -17.135 53.827 -37 69
c-27.18 20.76 -72 30 -115 30l21 108h8c69 0 136.353 32.41 152 102c0.904 4.02 1 8 1 12c0 30 -24 49 -68 49c-58 0 -99 -59 -113 -78c-32 24.67 -64 49.33 -96 74c5 8 76 111 226 111h6c112 0 186 -30 186 -120c0 -12 -1.175 -24.97 -4 -39
c-13.854 -68.82 -83 -146 -138 -156c76 -26 111 -78 111 -147c0 -15 -1.904 -31.019 -5 -47c-14.547 -75.085 -41.059 -113.93 -92 -157c-46.053 -38.937 -110 -60 -195 -60c-130 0 -187 62 -187 149c0 14 1 29 4 44zM-6 85l535 615l430 682c57.33 -34 114.67 -68 172 -102
l-515 -631l-451 -681z" />
    <glyph glyph-name="Thorn" unicode="&#xde;" 
d="M800 829c2.063 10.988 3 21 3 31c0 96 -97 128 -171 128h-9c-61 0 -106 -4 -151 -5c-4.667 -23.667 -9.333 -47.333 -14 -71c-36 -187 -53 -263 -53 -263c36 -1 71 -2 104 -2c116 0 260.924 21.832 291 182zM277 -10c-83.333 0.33333 -166.667 0.66667 -250 1
c86.333 443 172.667 886 259 1329c106 0 149 7 253 8c-8.333 -43 -16.667 -86 -25 -129h37c225 0 393.096 -12.94 481 -154c28.03 -44.98 42 -79 42 -126c0 -22 -3.19 -45.963 -9 -75c-41.36 -206.719 -203 -405 -547 -405c-48 0 -99 1 -153 3c-52 -268 -57 -293 -88 -452z
" />
    <glyph glyph-name="eth" unicode="&#xf0;" 
d="M686 825c-246 0 -330.574 -173.891 -359 -321c-7.144 -36.972 -11 -75 -11 -110c0 -100 34 -183 134 -183c170 0 257.88 122.023 298 329c6.979 36.004 11 68 11 96c0 69 -23 121 -73 189zM482 1258c-15 34 -61 65 -62 73c80.333 37.67 160.667 75.33 241 113
c22 -40 55 -81 76 -116c104.667 31.33 209.333 62.67 314 94c6.33 -67.33 12.67 -134.67 19 -202c-85.667 -13 -171.333 -26 -257 -39c112 -176 200 -318 200 -509c0 -42 -3.91 -86.017 -13 -133c-65.384 -338.118 -269 -538 -591 -538h-2c-228 1 -345 157 -345 373
c0 42 4.1362 84.974 13 130c37.577 190.885 172 490 545 514c-6 11 -28 53 -51 83c-98 -29 -167 -60 -253 -89c-6.667 67.33 -13.333 134.67 -20 202c0 0 121 22 186 44z" />
    <glyph glyph-name="thorn" unicode="&#xfe;" 
d="M173 739c20.333 105 40.667 210 61 315c16 83 20 166 23 231c77.667 8.67 155.333 17.33 233 26c2 -14 4 -32 4 -52c0 -15 -1 -31 -4 -48c-17.102 -96.91 -37.342 -193.38 -56 -290c68 62 158 90 270 90c214 0 293 -116 293 -294c0 -51 -6.283 -106.945 -18 -166
c-66.603 -335.674 -182 -559 -544 -559c-100 0 -139 37 -162 68c-4 -40 -4 -77 -10 -121c-6 -30.3333 -12 -60.667 -18 -91c-18 -94 -28 -178 -34 -246c-83 -2.333 -166 -4.667 -249 -7c5 73 19 168 37 259zM719 531c12.036 61.993 18 112 18 153c0 87 -28 127 -88 127
c-129 0 -186 -67 -248 -155l-66 -345c27 -58 70 -118 145 -118c115 0 187.155 70.97 239 338z" />
    <glyph glyph-name="Abreve" unicode="&#x102;" 
d="M735 1542c108 0 187 63 208 141l213 -30c-58 -177 -210 -294 -450 -294c-225 0 -343 78 -347 303l225 30c4 -117 76 -150 151 -150zM674 504v7c0 114 -38 262 -38 394c0 32 2 63 8 93c-39 -168 -172 -373 -237 -512c63 13 183 13 267 18zM601 1325h224
c49 -442 104 -877 147 -1325h-276c-8 94 -15 188 -23 281c-153 -3 -237 1 -363 -29l-48 -90c-32 -61 -60 -119 -71 -162h-260c16 61 55 143 97 223c191 367.333 382 734.667 573 1102z" />
    <glyph glyph-name="abreve" unicode="&#x103;" 
d="M692 1239c108 0 187 63 208 141l213 -30c-58 -177 -210 -294 -450 -294c-225 0 -343 78 -347 303l225 30c4 -117 76 -150 151 -150zM343 513c-18 -90 -25 -155 -25 -202c0 -121 49 -122 95 -122c110 0 228 186 257 242c19.333 99.333 38.667 198.667 58 298
c-28 42 -87 90 -151 90c-66 0 -181 -40 -234 -306zM891 316c-3.3291 -16.9346 -5 -33 -5 -49c0 -71 31 -129 70 -166c-52.667 -44 -105.333 -88 -158 -132c-41 37 -98 103 -98 196c0 7 0 13 1 20c-81 -136 -196 -196 -378 -196c-135 0 -254 62 -254 313
c0 66 8.72754 146.053 27 241c75.8672 394.215 334 485 480 485c81 0 164 -31 202 -87c6.66699 28 13.333 56 20 84l230 -12c-45.6367 -232.183 -91.3721 -464.867 -137 -697z" />
    <glyph glyph-name="Aogonek" unicode="&#x104;" 
d="M953 0c-259 -100 -392.25 -145.25 -419 -248c-0.793 -3.039 -1 -5 -1 -8c0 -37 50 -49 110 -49c58 0 104 29 138 51l96 -141c-53 -48 -182 -106 -282 -106c-165 0 -318 46 -318 194c0 15 1.746 32.05 5 50c36.162 199.473 285 245 403 339c1 8 1 16 1 24
c0 21 -2 41 -4 61l-9 114c-153 -3 -237 1 -363 -29l-48 -90c-32 -61 -60 -119 -71 -162h-260c16 61 55 143 97 223c191 367.333 382 734.667 573 1102h224c41 -360.333 82 -720.667 123 -1081c5 -50 11 -100 11 -151c0 -31 -2 -61 -8 -91
c0.667 -0.66667 1.333 -1.33333 2 -2zM674 504v7c0 114 -38 262 -38 394c0 32 2 63 8 93c-39 -168 -172 -373 -237 -512c63 13 183 13 267 18z" />
    <glyph glyph-name="aogonek" unicode="&#x105;" 
d="M286 317c-2.14 -11.973 -3 -23 -3 -33c0 -72 55 -95 111 -95c110 0 211 102 240 158c3.333 15.667 6.667 31.333 10 47c-28 42 -90 76 -154 76c-66 0 -184.297 -42.784 -204 -153zM666 101c-91 -78 -180 -112 -362 -112c-153 0 -279 105 -279 257
c0 18 1.1985 36.963 5 56c17.9324 89.804 63.8549 177.17 135 238c113.767 97.271 222 130 364 130c64 0 126 -21 159 -47c4 20 6 38 6 55c0 118 -91 142 -144 142c-115 0 -185 -60 -254 -137c-58.333 36.667 -116.667 73.333 -175 110c131 182 299 232 478 235
c199 0 347 -105 347 -294c0 -25 -3 -51 -8 -79l-66 -339c-5 -28 -8 -52 -8 -74c0 -49 15 -84 48 -115c-240 -289 -424.7 -276.1 -451 -376c-0.802 -3.039 -1 -5 -1 -8c0 -37 50 -49 110 -49c58 0 103 29 137 51c32.333 -47 64.667 -94 97 -141c-53 -48 -183 -106 -283 -106
c-165 0 -317 46 -317 194c0 16 1.241 31.953 5 50c37.382 179.471 427 207 457 359z" />
    <glyph glyph-name="dcaron" unicode="&#x10f;" 
d="M302 478c-11.918 -61.016 -18 -113 -18 -157c0 -94 29 -148 98 -148c57 0 137 74 205 176c21.667 111.333 43.333 222.667 65 334c-20 55 -63 130 -131 130c-86 0 -167.645 -72.07 -219 -335zM59 459c75.058 380.788 222 554 469 554c107 0 164 -55 194 -83v27
c0 64 5.699 116.06 21 195c17.652 91.07 41 187 63 260c76.667 -3 153.333 -6 230 -9c-20 -68 -42.938 -152.01 -61 -246c-53.815 -280.035 -120.294 -642.676 -175 -890c-1.779 -8.043 -3.221 -15.957 -5 -24c-18.235 -82.441 -23 -170 -27 -236
c-62.667 -6.66667 -125.333 -13.3333 -188 -20c0 0 -22 50 -22 90c0 6 0 11 1 16c-46 -53 -129 -100 -245 -100c-185 0 -274 99 -274 291c0 52 6.1808 109.965 19 175zM1293 1364c-52 -115 -94 -226 -159 -380c-47 11.333 -94 22.67 -141 34c42 145 91 289 127 394
c57.67 -16 115.33 -32 173 -48z" />
    <glyph glyph-name="Dcroat" unicode="&#x110;" 
d="M547 1127h-30c-16 0 -28 0 -46 -3c-4 -26 -8.977 -56 -15 -87c-7.969 -41.006 -14 -64 -20 -95h254c-13 -69.667 -26 -139.333 -39 -209c-85.333 -0.333 -170.667 -0.667 -256 -1c-48 -244 -91 -452 -108 -534c87 -3 39 -3 99 -3h3c40 0 183.616 2.239 280 158
c27.888 45.069 53.052 135.99 64 191c20.096 100.981 29 190 29 266c0 208 -73 317 -215 317zM184 942c2.333 11.667 4.667 23.333 7 35c25 129 45 252 53 340c83 8 129 14 228 14c271 0 411 -82 498 -265c37 -80 56 -181 56 -290c0 -63 -6.27 -129.949 -19 -196
c-13.284 -68.944 -34.993 -138.003 -61 -204c-94.974 -241.01 -279.971 -362.328 -463 -379c-55.991 -5.10023 -107 -7 -162 -7c-84 0 -216 7 -330 7c7 34 7 33 29 131c9 46 68 326 123 604h-70c13.6667 70 27.333 140 41 210h70z" />
    <glyph glyph-name="dcroat" unicode="&#x111;" 
d="M366 478c-11.119 -57.977 -18 -109 -18 -152c0 -97 32 -153 107 -153c61 0 145 74 216 176c21.667 111.333 43.333 222.667 65 334c-22 55 -69 130 -141 130c-92 0 -178.541 -71.897 -229 -335zM107 459c73.876 381.024 230 554 493 554c114 0 176 -55 208 -83
c0 14 -1 27 -1 40c0 41 3 79 9 123h-280c12.667 64.67 25.333 129.33 38 194h283c11 45 22 88 34 125c82.333 -3 164.67 -6 247 -9c-11 -35 -23 -74 -34 -116h41c-12.67 -64.67 -25.33 -129.33 -38 -194h-45c-52 -269 -110.118 -597.471 -161 -826
c-1.791 -8.041 -3.221 -15.957 -5 -24c-18.235 -82.441 -24 -170 -27 -236c-66.667 -6.66667 -133.333 -13.3333 -200 -20c0 0 -25 50 -25 91c0 5 0 10 1 15c-48 -53 -136 -100 -260 -100c-200 0 -296 101 -296 298c0 50 5.9798 106.004 18 168z" />
    <glyph glyph-name="Ebreve" unicode="&#x114;" 
d="M728 1528.89c108 0 187 63.6641 208 142.486l213 -30.3164c-58 -178.866 -210 -297.099 -450 -297.099c-225 0 -343 78.8223 -347 306.193l225 30.3164c4 -118.233 76 -151.581 151 -151.581zM283 1319c57 4 127 4 205 4h98h110c149 0 285 -3 359 -3h16
c-13.3301 -67.3301 -26.6699 -134.67 -40 -202h-529c-17.333 -89.6699 -34.667 -179.333 -52 -269h338c-13 -67.667 -26 -135.333 -39 -203h-338c-2 -10.333 -4 -20.667 -6 -31c-40 -207 -67 -332 -82 -411c138.667 0.666992 277.333 1.33301 416 2c56 0 130 27 130 27
c11.333 -66.333 22.667 -132.667 34 -199c-51 -13 -96 -34 -194 -34h-682c85.333 439.667 170.667 879.333 256 1319z" />
    <glyph glyph-name="ebreve" unicode="&#x115;" 
d="M730 1230c108 0 187 63 208 141l213 -30c-58 -177 -210 -294 -450 -294c-225 0 -343 78 -347 303l225 30c4 -117 76 -150 151 -150zM379 606c25 4 60 5 98 5h58c69 0 137.034 1.94727 168 22c20.0225 12.9658 35 45 35 78c0 51 -35 107 -143 107
c-102 0 -187 -96 -216 -212zM632 1021c281 0 359 -169 359 -304c0 -39 -6.14062 -73.9512 -16 -102c-93.3301 -265.525 -506 -194 -637 -219v-13c0 -105 69 -187 157 -187c106 0 220 27 318 99l102 -180c-170 -90 -227 -125 -466 -125c-238 0 -361 147 -361 376
c0 47 4.81836 97.0361 15 150c55.0156 286.186 246 505 529 505z" />
    <glyph glyph-name="Edotaccent" unicode="&#x116;" 
d="M612 1669h284c-15.333 -82 -30.667 -164 -46 -246h-285c15.667 82 31.333 164 47 246zM283 1319c57 4 127 4 205 4h98h110c149 0 285 -3 359 -3h16c-13.3301 -67.3301 -26.6699 -134.67 -40 -202h-529c-17.333 -89.6699 -34.667 -179.333 -52 -269h338
c-13 -67.667 -26 -135.333 -39 -203h-338c-2 -10.333 -4 -20.667 -6 -31c-40 -207 -67 -332 -82 -411c138.667 0.666992 277.333 1.33301 416 2c56 0 130 27 130 27c11.333 -66.333 22.667 -132.667 34 -199c-51 -13 -96 -34 -194 -34h-682
c85.333 439.667 170.667 879.333 256 1319z" />
    <glyph glyph-name="edotaccent" unicode="&#x117;" 
d="M617 1428.5h284c-15.333 -82 -30.667 -164 -46 -246h-285c15.667 82 31.333 164 47 246zM379 606c25 4 60 5 98 5h58c69 0 137.034 1.94727 168 22c20.0225 12.9658 35 45 35 78c0 51 -35 107 -143 107c-102 0 -187 -96 -216 -212zM632 1021c281 0 359 -169 359 -304
c0 -39 -6.14062 -73.9512 -16 -102c-93.3301 -265.525 -506 -194 -637 -219v-13c0 -105 69 -187 157 -187c106 0 220 27 318 99l102 -180c-170 -90 -227 -125 -466 -125c-238 0 -361 147 -361 376c0 47 4.81836 97.0361 15 150c55.0156 286.186 246 505 529 505z" />
    <glyph glyph-name="Eogonek" unicode="&#x118;" 
d="M283 1319c57 4 127 4 205 4h98h110c149 0 285 -3 359 -3h16c-13.33 -67.33 -26.67 -134.67 -40 -202h-529c-17.333 -89.67 -34.667 -179.333 -52 -269h338c-13 -67.667 -26 -135.333 -39 -203h-338c-2 -10.333 -4 -20.667 -6 -31c-40 -207 -67 -332 -82 -411
c138.667 0.667 277.333 1.333 416 2c56 0 130 27 130 27c11.333 -66.333 22.667 -132.667 34 -199c-308 -160 -433.7 -183.1 -460 -283c-0.802 -3.039 -1 -5 -1 -8c0 -37 50 -49 110 -49c58 0 103 29 137 51c32.333 -47 64.667 -94 97 -141c-53 -48 -182 -105 -282 -105
c-165 0 -318 46 -318 194c0 15 1.712 32.058 5 50c22.973 125.338 124 168 296 257h-460c85.333 439.667 170.667 879.333 256 1319z" />
    <glyph glyph-name="eogonek" unicode="&#x119;" 
d="M379 606c117 20 211 24 344 24c3 17 4 33 4 48c0 97 -55 140 -132 140c-102 0 -187 -96 -216 -212zM632 1021c248 0 345 -127 345 -341c0 -61 -7.615 -129.077 -22 -203c-3.896 -20.02 -10 -43 -10 -43c-286 -4 -501 -18 -607 -38c0 -6 -1 -13 -1 -19
c0 -102 47 -181 134 -181c106 0 143 9 221 98c58.333 -42.667 116.667 -85.333 175 -128c-188 -227 -440.4 -310.2 -468 -415c-0.802 -3.039 -1 -5 -1 -8c0 -37 50 -49 110 -49c58 0 103 29 137 51c32.333 -47 64.667 -94 97 -141c-53 -48 -183 -106 -283 -106
c-165 0 -317 46 -317 194c0 16 1.208 31.959 5 50c23.271 110.718 143 163 273 248c-229 2 -334 142 -334 360c0 51 5.734 107.052 17 166c54.706 286.241 246 505 529 505z" />
    <glyph glyph-name="Ecaron" unicode="&#x11a;" 
d="M678 1328c-102.667 99 -205.333 198 -308 297l171 138c61.667 -63 123.333 -126 185 -189l279 201l108 -156zM283 1319c57 4 127 4 205 4h98h110c149 0 285 -3 359 -3h16c-13.3301 -67.3301 -26.6699 -134.67 -40 -202h-529c-17.333 -89.6699 -34.667 -179.333 -52 -269
h338c-13 -67.667 -26 -135.333 -39 -203h-338c-2 -10.333 -4 -20.667 -6 -31c-40 -207 -67 -332 -82 -411c138.667 0.666992 277.333 1.33301 416 2c56 0 130 27 130 27c11.333 -66.333 22.667 -132.667 34 -199c-51 -13 -96 -34 -194 -34h-682
c85.333 439.667 170.667 879.333 256 1319z" />
    <glyph glyph-name="ecaron" unicode="&#x11b;" 
d="M668 1049c-102.667 99 -205.333 198 -308 297l171 138c61.667 -63 123.333 -126 185 -189l279 201l108 -156zM379 606c25 4 60 5 98 5h58c69 0 137.034 1.94727 168 22c20.0225 12.9658 35 45 35 78c0 51 -35 107 -143 107c-102 0 -187 -96 -216 -212zM632 1021
c281 0 359 -169 359 -304c0 -39 -6.14062 -73.9512 -16 -102c-93.3301 -265.525 -506 -194 -637 -219v-13c0 -105 69 -187 157 -187c106 0 220 27 318 99l102 -180c-170 -90 -227 -125 -466 -125c-238 0 -361 147 -361 376c0 47 4.81836 97.0361 15 150
c55.0156 286.186 246 505 529 505z" />
    <glyph glyph-name="Gcircumflex" unicode="&#x11c;" 
d="M858 1761.4c107.333 -97 214.667 -194 322 -291c-56.3301 -52 -112.667 -104 -169 -156l-201 201l-258 -189l-117 138zM1064 758c-11 -57.333 -22 -114.667 -33 -172c-87 -444 -227 -536 -414 -583c-47 -10 -112 -11 -154 -11c-293 0 -414 191 -414 450
c0 63 7.80664 130.038 21 199c46.3213 242.128 138 439 294 569c117 90 237 118 352 118h20c213 -5 344 -91 387 -257c-85.3301 -38.6699 -170.667 -77.333 -256 -116c-13 118 -52 166 -184 166c-168 0 -299.362 -201.931 -355 -491c-13.085 -67.9844 -20 -129 -20 -183
c0 -156 57 -249 185 -249c172 0 232 176 270 370c-21.3242 -0.333008 -42.6729 -1 -64 -1c-71 0 -100 -3 -197 -37c-13.667 67 -27.333 134 -41 201c103 37 208 43 309 43c103 0 219 -10 294 -16z" />
    <glyph glyph-name="gcircumflex" unicode="&#x11d;" 
d="M769 1502c107.333 -97 214.667 -194 322 -291c-56.3301 -52 -112.667 -104 -169 -156l-201 201l-258 -189l-117 138zM299 346c0 -112 35 -135 80 -135c98 0 359 293 389 390c6.33301 37.667 12.667 75.333 19 113c-30 38 -100 113 -204 113c-150 0 -284 -174 -284 -481z
M1095 1013l-129 -657c-76 -385 -216 -758 -612 -758c-115 0 -256 42 -429 145c33 67.333 66 134.667 99 202c145 -101 258 -130 347 -130c212 0 293 295 331 418c-58 -84 -169 -241 -381 -241c-155 0 -255 148 -255 351c0 389 225 691 538 691c126 0 193 -53 241 -86
c4 19 14 55 20 77c76.667 -4 153.33 -8 230 -12z" />
    <glyph glyph-name="Gbreve" unicode="&#x11e;" 
d="M787 1524c108 0 187 63 208 141l213 -30c-58 -177 -210 -294 -450 -294c-225 0 -343 78 -347 303l225 30c4 -117 76 -150 151 -150zM1064 758c-11 -57.333 -22 -114.667 -33 -172c-87 -444 -227 -536 -414 -583c-47 -10 -112 -11 -154 -11c-293 0 -414 191 -414 450
c0 63 7.80664 130.038 21 199c46.3213 242.128 138 439 294 569c117 90 237 118 352 118h20c213 -5 344 -91 387 -257c-85.3301 -38.6699 -170.667 -77.333 -256 -116c-13 118 -52 166 -184 166c-168 0 -299.362 -201.931 -355 -491c-13.085 -67.9844 -20 -129 -20 -183
c0 -156 57 -249 185 -249c172 0 232 176 270 370c-21.3242 -0.333008 -42.6729 -1 -64 -1c-71 0 -100 -3 -197 -37c-13.667 67 -27.333 134 -41 201c103 37 208 43 309 43c103 0 219 -10 294 -16z" />
    <glyph glyph-name="gbreve" unicode="&#x11f;" 
d="M735 1243c108 0 187 63 208 141l213 -30c-58 -177 -210 -294 -450 -294c-225 0 -343 78 -347 303l225 30c4 -117 76 -150 151 -150zM299 346c0 -112 35 -135 80 -135c98 0 359 293 389 390c6.33301 37.667 12.667 75.333 19 113c-30 38 -100 113 -204 113
c-150 0 -284 -174 -284 -481zM1095 1013l-129 -657c-76 -385 -216 -758 -612 -758c-115 0 -256 42 -429 145c33 67.333 66 134.667 99 202c145 -101 258 -130 347 -130c212 0 293 295 331 418c-58 -84 -169 -241 -381 -241c-155 0 -255 148 -255 351c0 389 225 691 538 691
c126 0 193 -53 241 -86c4 19 14 55 20 77c76.667 -4 153.33 -8 230 -12z" />
    <glyph glyph-name="Gdotaccent" unicode="&#x120;" 
d="M681 1672h284c-15.333 -82 -30.667 -164 -46 -246h-285c15.667 82 31.333 164 47 246zM1064 758c-11 -57.333 -22 -114.667 -33 -172c-87 -444 -227 -536 -414 -583c-47 -10 -112 -11 -154 -11c-293 0 -414 191 -414 450c0 63 7.80664 130.038 21 199
c46.3213 242.128 138 439 294 569c117 90 237 118 352 118h20c213 -5 344 -91 387 -257c-85.3301 -38.6699 -170.667 -77.333 -256 -116c-13 118 -52 166 -184 166c-168 0 -299.362 -201.931 -355 -491c-13.085 -67.9844 -20 -129 -20 -183c0 -156 57 -249 185 -249
c172 0 232 176 270 370c-21.3242 -0.333008 -42.6729 -1 -64 -1c-71 0 -100 -3 -197 -37c-13.667 67 -27.333 134 -41 201c103 37 208 43 309 43c103 0 219 -10 294 -16z" />
    <glyph glyph-name="gdotaccent" unicode="&#x121;" 
d="M604 1429.1h284c-15.333 -81.833 -30.667 -163.667 -46 -245.5h-285c15.667 81.833 31.333 163.667 47 245.5zM299 346c0 -112 35 -135 80 -135c98 0 359 293 389 390c6.33301 37.667 12.667 75.333 19 113c-30 38 -100 113 -204 113c-150 0 -284 -174 -284 -481z
M1095 1013l-129 -657c-76 -385 -216 -758 -612 -758c-115 0 -256 42 -429 145c33 67.333 66 134.667 99 202c145 -101 258 -130 347 -130c212 0 293 295 331 418c-58 -84 -169 -241 -381 -241c-155 0 -255 148 -255 351c0 389 225 691 538 691c126 0 193 -53 241 -86
c4 19 14 55 20 77c76.667 -4 153.33 -8 230 -12z" />
    <glyph glyph-name="Gcommaaccent" unicode="&#x122;" 
d="M342 -130h270c-14 -71.667 -28 -143.333 -42 -215c-29 -151 -80 -219 -211 -278c-36.667 41.667 -73.333 83.333 -110 125c61 42 93 81 106 147h-56c14.333 73.667 28.667 147.333 43 221zM1064 758c-11 -57.333 -22 -114.667 -33 -172c-87 -444 -227 -536 -414 -583
c-47 -10 -112 -11 -154 -11c-293 0 -414 191 -414 450c0 63 7.80664 130.038 21 199c46.3213 242.128 138 439 294 569c117 90 237 118 352 118h20c213 -5 344 -91 387 -257c-85.3301 -38.6699 -170.667 -77.333 -256 -116c-13 118 -52 166 -184 166
c-168 0 -299.362 -201.931 -355 -491c-13.085 -67.9844 -20 -129 -20 -183c0 -156 57 -249 185 -249c172 0 232 176 270 370c-21.3242 -0.333008 -42.6729 -1 -64 -1c-71 0 -100 -3 -197 -37c-13.667 67 -27.333 134 -41 201c103 37 208 43 309 43c103 0 219 -10 294 -16z
" />
    <glyph glyph-name="gcommaaccent" unicode="&#x123;" 
d="M586 1180c60 112 108 221 182 372l183 -33c-46 -142 -100 -283 -141 -386c-74.667 15.6699 -149.333 31.3301 -224 47zM299 346c0 -112 35 -135 80 -135c98 0 359 293 389 390c6.33301 37.667 12.667 75.333 19 113c-30 38 -100 113 -204 113c-150 0 -284 -174 -284 -481
zM1095 1013l-129 -657c-76 -385 -216 -758 -612 -758c-115 0 -256 42 -429 145c33 67.333 66 134.667 99 202c145 -101 258 -130 347 -130c212 0 293 295 331 418c-58 -84 -169 -241 -381 -241c-155 0 -255 148 -255 351c0 389 225 691 538 691c126 0 193 -53 241 -86
c4 19 14 55 20 77c76.667 -4 153.33 -8 230 -12z" />
    <glyph glyph-name="Hcircumflex" unicode="&#x124;" 
d="M774 1780c107.333 -97 214.667 -194 322 -291c-56.3301 -52 -112.667 -104 -169 -156l-201 201l-258 -189l-117 138zM499 1322l-105 -537c96 21 157 29 277 29h87c54 280 65 338 97 503h256c-85.3301 -439 -170.667 -878 -256 -1317h-255
c38.667 199.667 77.333 399.333 116 599h-32c-146 0 -209 -3 -332 -29c-68 -350 -73 -385 -109 -570h-258c85.667 440 171.333 880 257 1320c85.667 0.669922 171.333 1.33008 257 2z" />
    <glyph glyph-name="hcircumflex" unicode="&#x125;" 
d="M507 1817c107.333 -97 214.667 -194 322 -291c-56.3301 -52 -112.667 -104 -169 -156l-201 201l-258 -189l-117 138zM977 566c-20 -103.333 -40.124 -206.643 -60 -310c-5 -26 -8 -48 -8 -66c0 -38 12 -62 41 -93l-213 -129c-38 27 -86 80 -86 163c0 14 1 29 4 45
c19.709 105.112 40.668 210.006 61 315c18 95 25 160 25 205c0 98 -33 100 -58 100h-3c-105 0 -288 -225 -341 -378c-27 -139.333 -54 -278.667 -81 -418h-245c74.999 385.327 151.171 770.447 225 1156c18 94 26 178 32 246c83.333 3 166.667 6 250 9
c-5 -73 -41.3916 -277.93 -59 -369c-17.3857 -89.9238 -81 -199 -114 -276c42 28 171 247 393 247c132 0 252 -87 252 -302c0 -43 -4 -91 -15 -145z" />
    <glyph glyph-name="Hbar" unicode="&#x126;" 
d="M218 1198c8 40.67 16 81.33 24 122c85.667 0.67 171.333 1.33 257 2c-8 -41.33 -16 -82.67 -24 -124h357c7 36 14 73 23 119h256c-7.67 -39.67 -15.33 -79.33 -23 -119h80c-13.33 -69 -26.67 -138 -40 -207h-80c-64.333 -330.333 -128.667 -660.667 -193 -991h-255
c38.667 199.667 77.333 399.333 116 599h-32c-146 0 -209 -3 -332 -29c-68 -350 -73 -385 -109 -570h-258c64.3333 330.333 128.667 660.667 193 991h-60c13.333 69 26.667 138 40 207h60zM793 991h-359c-13.333 -68.667 -26.667 -137.333 -40 -206c96 21 157 29 277 29h87
c14 72 26 129 35 177z" />
    <glyph glyph-name="hbar" unicode="&#x127;" 
d="M1007 566c-22.667 -116 -45.333 -232 -68 -348c-10 -52 -17 -102 -17 -141c0 -22 2 -41 7 -55c-79.333 -18 -158.667 -36 -238 -54c-10 18 -17 48 -17 91c0 32 4 70 13 117c20.333 105 40.667 210 61 315c15 75 21 132 21 176c0 138 -62 145 -132 145
c-72 0 -149 -75 -193 -130c-44.333 -227.333 -88.667 -454.667 -133 -682h-246c72.667 371.333 145.333 742.667 218 1114h-141c13.333 69 26.667 138 40 207h133c3 29 7 56 9 81l249 9c-2 -27 -5 -58 -9 -90h332c-13.333 -69 -26.667 -138 -40 -207h-327
c-15 -69 -31 -119 -59 -185c42 28 126 83 240 83c204 0 314 -82 314 -287c0 -47 -5 -99 -17 -159z" />
    <glyph glyph-name="Itilde" unicode="&#x128;" 
d="M585 1676c216 0 209 -132 299 -132c50 0 87 31 106 100c55.3301 -18 110.67 -36 166 -54c-40 -96 -123 -224 -285 -224c-198 0 -193 130 -294 130c-42 0 -87 -37 -108 -100c-56.333 26 -112.667 52 -169 78c51 93 144 202 285 202zM314 1324c157 4 258 5 354 5
c105 0 205 -1 368 -3c-14 -70.3301 -28 -140.67 -42 -211c-123 0 -134 5 -229 5c-58.333 -300.333 -116.667 -600.667 -175 -901c46 0 31 1 82 1c45 0 92 -1 143 -4c-13.667 -72.333 -27.333 -144.667 -41 -217c-84 5 -146 6 -209 6c-47 0 -96 -1 -155 -1
c-74 0 -197 -7 -352 -7l42 216c86 4 124 5 181 5h52c58.667 300.333 117.333 600.667 176 901c-66 -1 -123 -1 -230 -7c11.667 70.6699 23.333 141.33 35 212z" />
    <glyph glyph-name="itilde" unicode="&#x129;" 
d="M537 1415c216 0 209 -132 299 -132c50 0 87 31 106 100c55.3301 -18 110.67 -36 166 -54c-40 -96 -123 -224 -285 -224c-198 0 -193 130 -294 130c-42 0 -87 -37 -108 -100c-56.333 26 -112.667 52 -169 78c51 93 144 202 285 202zM481 1039
c83.333 -8.66992 166.667 -17.3301 250 -26c-53 -273 -133 -687 -133 -687c-3 -17 -5 -34 -5 -51c0 -49 18 -93 86 -93c93 0 160 33 231 91c20 -63.333 40 -126.667 60 -190c-100 -71 -256 -101 -380 -101c-192 0 -269 79 -269 203c0 23 3 47 8 73
c31 159.667 62 319.333 93 479c0 0 -34 -34 -134 -82c-37 61.333 -74 122.667 -111 184c124 40 249 98 304 200z" />
    <glyph glyph-name="Imacron" unicode="&#x12a;" 
d="M981 1625c-12.667 -64.6699 -25.333 -129.33 -38 -194c-5.65527 0 -11.3486 0.19043 -17 0c-58 -2 -157 -7 -231 -7s-166 1 -234 3c-5.99902 0.179688 -12.0068 0.669922 -18 1c12.667 65.6699 25.333 131.33 38 197c6.27441 -0.660156 12.6973 -1.80957 19 -2
c65 -2 179 -3 271 -3c61 0 148 5 193 5h17zM314 1324c157 4 258 5 354 5c105 0 205 -1 368 -3c-14 -70.3301 -28 -140.67 -42 -211c-123 0 -134 5 -229 5c-58.333 -300.333 -116.667 -600.667 -175 -901c46 0 31 1 82 1c45 0 92 -1 143 -4
c-13.667 -72.333 -27.333 -144.667 -41 -217c-84 5 -146 6 -209 6c-47 0 -96 -1 -155 -1c-74 0 -197 -7 -352 -7l42 216c86 4 124 5 181 5h52c58.667 300.333 117.333 600.667 176 901c-66 -1 -123 -1 -230 -7c11.667 70.6699 23.333 141.33 35 212z" />
    <glyph glyph-name="imacron" unicode="&#x12b;" 
d="M951 1376c-12.667 -64.6699 -25.333 -129.33 -38 -194c-5.65527 0 -11.3486 0.19043 -17 0c-58 -2 -157 -7 -231 -7s-166 1 -234 3c-5.99902 0.179688 -12.0068 0.669922 -18 1c12.667 65.6699 25.333 131.33 38 197c6.27441 -0.660156 12.6973 -1.80957 19 -2
c65 -2 179 -3 271 -3c61 0 148 5 193 5h17zM481 1039c83.333 -8.66992 166.667 -17.3301 250 -26c-53 -273 -133 -687 -133 -687c-3 -17 -5 -34 -5 -51c0 -49 18 -93 86 -93c93 0 160 33 231 91c20 -63.333 40 -126.667 60 -190c-100 -71 -256 -101 -380 -101
c-192 0 -269 79 -269 203c0 23 3 47 8 73c31 159.667 62 319.333 93 479c0 0 -34 -34 -134 -82c-37 61.333 -74 122.667 -111 184c124 40 249 98 304 200z" />
    <glyph glyph-name="Ibreve" unicode="&#x12c;" 
d="M721 1525c108 0 187 63 208 141l213 -30c-58 -177 -210 -294 -450 -294c-225 0 -343 78 -347 303l225 30c4 -117 76 -150 151 -150zM314 1324c157 4 258 5 354 5c105 0 205 -1 368 -3c-14 -70.3301 -28 -140.67 -42 -211c-123 0 -134 5 -229 5
c-58.333 -300.333 -116.667 -600.667 -175 -901c46 0 31 1 82 1c45 0 92 -1 143 -4c-13.667 -72.333 -27.333 -144.667 -41 -217c-84 5 -146 6 -209 6c-47 0 -96 -1 -155 -1c-74 0 -197 -7 -352 -7l42 216c86 4 124 5 181 5h52c58.667 300.333 117.333 600.667 176 901
c-66 -1 -123 -1 -230 -7c11.667 70.6699 23.333 141.33 35 212z" />
    <glyph glyph-name="ibreve" unicode="&#x12d;" 
d="M691 1263c108 0 187 63 208 141l213 -30c-58 -177 -210 -294 -450 -294c-225 0 -343 78 -347 303l225 30c4 -117 76 -150 151 -150zM481 1039c83.333 -8.66992 166.667 -17.3301 250 -26c-53 -273 -133 -687 -133 -687c-3 -17 -5 -34 -5 -51c0 -49 18 -93 86 -93
c93 0 160 33 231 91c20 -63.333 40 -126.667 60 -190c-100 -71 -256 -101 -380 -101c-192 0 -269 79 -269 203c0 23 3 47 8 73c31 159.667 62 319.333 93 479c0 0 -34 -34 -134 -82c-37 61.333 -74 122.667 -111 184c124 40 249 98 304 200z" />
    <glyph glyph-name="Iogonek" unicode="&#x12e;" 
d="M314 1324c157 4 258 5 354 5c105 0 205 -1 368 -3c-14 -70.33 -28 -140.67 -42 -211c-123 0 -134 5 -229 5c-58.333 -300.333 -116.667 -600.667 -175 -901c46 0 31 1 82 1c45 0 92 -1 143 -4c-13.667 -72.333 -27.333 -144.667 -41 -217
c-260 -65 -382.7 -146.1 -409 -246c-0.802 -3.039 -1 -5 -1 -8c0 -37 50 -49 110 -49c58 0 104 29 138 51l96 -141c-53 -48 -182 -106 -282 -106c-165 0 -318 46 -318 194c0 15 1.769 32.045 5 50c21.459 119.257 113 179 277 260c-75 -1 -190 -7 -332 -7l42 216
c86 4 124 5 181 5h52c58.667 300.333 117.333 600.667 176 901c-66 -1 -123 -1 -230 -7c11.667 70.67 23.333 141.33 35 212z" />
    <glyph glyph-name="iogonek" unicode="&#x12f;" 
d="M527 1406h291c-14.333 -75 -28.667 -150 -43 -225h-291c14.333 75 28.667 150 43 225zM476 1013h255c-53 -273 -143 -739 -143 -739c-2.497 -12.904 -4 -25 -4 -35c0 -39 22 -57 95 -57c93 0 160 33 231 91c20 -63.333 40 -126.667 60 -190c-2 -2 -5.014 -3.9794 -8 -6
c-298.385 -201.922 -446.5 -207 -458 -325c-0.188 -1.963 -1 -5 -1 -7c0 -34 50 -51 110 -51c58 0 104 30 138 52c32 -47.333 64 -94.667 96 -142c-53 -48 -182 -105 -282 -105c-165 0 -318 46 -318 194c0 15 1.742 32.051 5 50c20.378 112.27 117 161 260 243
c-58 6 -108.004 16.9928 -136 34c-51.008 30.9869 -64 77 -64 122c0 22 3 44 7 64c39.333 202.333 78.667 404.667 118 607c-49 0 -140 -6 -239 -28c2.333 62 4.667 124 7 186c99 28 191 42 271 42z" />
    <glyph glyph-name="Idotaccent" unicode="&#x130;" 
d="M593 1672h284c-15.333 -82 -30.667 -164 -46 -246h-285c15.667 82 31.333 164 47 246zM314 1324c157 4 258 5 354 5c105 0 205 -1 368 -3c-14 -70.3301 -28 -140.67 -42 -211c-123 0 -134 5 -229 5c-58.333 -300.333 -116.667 -600.667 -175 -901c46 0 31 1 82 1
c45 0 92 -1 143 -4c-13.667 -72.333 -27.333 -144.667 -41 -217c-84 5 -146 6 -209 6c-47 0 -96 -1 -155 -1c-74 0 -197 -7 -352 -7l42 216c86 4 124 5 181 5h52c58.667 300.333 117.333 600.667 176 901c-66 -1 -123 -1 -230 -7c11.667 70.6699 23.333 141.33 35 212z" />
    <glyph glyph-name="IJ" unicode="&#x132;" 
d="M656 0c-183 0 -247 130 -247 292c0 46 5 94 14 143c78.333 -0.333 156.667 -0.667 235 -1c-7 -47 -11 -86 -11 -118c0 -71 17 -104 44 -104c61 0 90.102 90.794 154 427c14.245 74.953 42 267 42 388c0 31 -1 58 -6 77c-49 0 -44 4 -72 4c-79 -3 -90 -12 -111 -18
c4.667 70.67 9.333 141.33 14 212c23 7 49 19 138 22c109 0 271 -1 388 -1c-14.67 -72.33 -29.33 -144.67 -44 -217c-36 0 -22 1 -72 1c0 -119 -12.16 -356.969 -34 -468c-74.54 -378.893 -162 -639 -432 -639zM192 1324c87 4 142 5 195 5c58 0 112 -1 202 -3
c-13.667 -70.33 -27.333 -140.67 -41 -211c-18.667 1.67 -37.333 3.33 -56 5c-58.333 -300 -116.667 -600 -175 -900c18 -1.333 36 -2.667 54 -4c-14 -72.333 -28 -144.667 -42 -217c-46 5 -79 6 -114 6c-26 0 -53 -1 -85 -1c-41 0 -110 -7 -195 -7l42 216c39 3 60 5 83 5
c58.667 300.333 117.333 600.667 176 901c-27.333 -2.33 -54.667 -4.67 -82 -7c12.667 70.67 25.333 141.33 38 212z" />
    <glyph glyph-name="ij" unicode="&#x133;" 
d="M290 1013h256c-48 -246.333 -96 -492.667 -144 -739c-4 -23 -8 -42 -8 -56c0 -25 11 -36 49 -36c60 0 72 2 121 60c19.667 -53 39.333 -106 59 -159c-69 -71 -172 -101 -251 -101c-54 0 -142.106 13.8312 -181 38c-51.137 31.7768 -65 78 -65 123c0 22 3 44 7 63
c39.333 202.333 78.667 404.667 118 607h-25c-24 0 -33 -2 -111 -19l6 186c99 28 89 33 169 33zM900 -78c-30 -153 -143 -311 -429 -311c-26 0 -52 -1 -78 -1c-95 0 -195 14 -367 146l183 174c105 -116 209 -118 273 -118h6h18c120 0 137 105 146 140
c55.667 287 111.333 574 167 861h-30c-35 0 -70 -2 -148 -19l6 186c99 28 131 33 211 33h254c-70.67 -363.667 -141.333 -727.333 -212 -1091zM892 1406h290c-14.33 -75 -28.67 -150 -43 -225h-290c14.333 75 28.667 150 43 225zM342 1406h292
c-14.333 -75 -28.667 -150 -43 -225h-292c14.333 75 28.667 150 43 225z" />
    <glyph glyph-name="Jcircumflex" unicode="&#x134;" 
d="M913 1771c107.333 -97 214.667 -194 322 -291c-56.3301 -52 -112.667 -104 -169 -156l-201 201l-258 -189l-117 138zM337 -8c-228 0 -316 153 -316 331c0 37 4 74 11 112c86.667 -0.333008 173.333 -0.666992 260 -1c-5 -31 -7 -58 -7 -83c0 -98 35 -147 88 -147
c198 0 288 571 323 902c-49 0 -161 2 -198 2c-105 -3 -93 -12 -121 -18c-13.667 70.6699 -27.333 141.33 -41 212c31 7 39 19 158 22c145 0 338 -1 494 -1c-129 -864 -225 -1331 -651 -1331z" />
    <glyph glyph-name="jcircumflex" unicode="&#x135;" 
d="M890 1495.6c107.333 -97 214.667 -194 322 -291c-56.3301 -52 -112.667 -104 -169 -156l-201 201l-258 -189l-117 138zM752 -78c-30 -153 -142 -311 -428 -311c-123 0 -273 28 -359 233c64 49.333 128 98.667 192 148c58 -145 120 -180 183 -180h18
c120 0 137 105 146 140c51 253.667 102 507.333 153 761c2 11 3 23 3 33c0 53 -29 88 -85 88c-50 0 -120 -28 -210 -97l-120 135c153 120 243 141 396 141c225 0 273 -154 273 -238c0 -12 -1 -24 -3 -32c-53 -273.667 -106 -547.333 -159 -821z" />
    <glyph glyph-name="Kcommaaccent" unicode="&#x136;" 
d="M324 -154h270c-14 -71.667 -28 -143.333 -42 -215c-29 -151 -80 -219 -211 -278c-36.667 41.667 -73.333 83.333 -110 125c61 42 93 81 106 147h-56c14.333 73.667 28.667 147.333 43 221zM638 742c97 -119 330 -550 354 -688c-78 -28.667 -156 -57.333 -234 -86
c-24 111 -188 477 -293 606c0 0 -68 -62 -112 -134c-29 -148.333 -58 -296.667 -87 -445h-258c86.667 446.667 173.333 893.333 260 1340h258c-30 -154.67 -60 -309.33 -90 -464c131 145 518 468 562 505l162 -177c-208 -135 -448 -383 -522 -457z" />
    <glyph glyph-name="kcommaaccent" unicode="&#x137;" 
d="M312 -149h270c-14 -71.667 -28 -143.333 -42 -215c-29 -151 -80 -219 -211 -278c-36.667 41.667 -73.333 83.333 -110 125c61 42 93 81 106 147h-56c14.333 73.667 28.667 147.333 43 221zM456 429c12 18 102 168 112 179c27 -9 50 -14 71 -14c63 0 100 43 117 132
c1 5 1 10 1 15c0 34 -20 72 -70 72c-73 0 -246 -128 -246 -128c-44 -228 -89 -457 -133 -685h-249c80 409 159 819 239 1228c7 37 10 71 10 101c0 20 -1 38 -3 54c84 15 168 29 252 44c3 -15 9 -39 9 -73c0 -18 -2 -38 -6 -61c-15 -74 -29 -149 -44 -223
c-11 -58 -35 -121 -64 -174c0 0 141 121 284 121c173 0 274 -66 274 -209c0 -23 -3 -47 -8 -74c-34 -182 -118 -282 -250 -300c99 -156 156 -212 258 -298c-73 -55 -147 -111 -220 -166c-76 72 -213 263 -334 459z" />
    <glyph glyph-name="kgreenlandic" unicode="&#x138;" 
d="M633 588c97 -119 319 -340 343 -478c-86.667 -42 -173.333 -84 -260 -126c-24 111 -178 267 -283 396c0 0 -68 -62 -112 -134l-48 -246h-258c66.333 340.667 132.667 681.333 199 1022h258c-22.667 -115.333 -45.333 -230.667 -68 -346c131 145 547 362 603 382
c34 -67.333 68 -134.667 102 -202c-229 -118 -402 -194 -476 -268z" />
    <glyph glyph-name="Lacute" unicode="&#x139;" 
d="M288 1509c152 48 348 160 484 268c33.667 -57.3301 67.333 -114.67 101 -172c-133 -112 -377 -223 -529 -270c-18.667 58 -37.333 116 -56 174zM81 -3c86.333 442.667 172.667 885.333 259 1328h254c-72.667 -372.667 -145.333 -745.333 -218 -1118h428c60 3 71 6 118 21
c11.333 -65.667 22.667 -131.333 34 -197c-50 -16 -116 -34 -191 -34h-684z" />
    <glyph glyph-name="lacute" unicode="&#x13a;" 
d="M297 1605c152 48 348 160 484 268c33.667 -57.3301 67.333 -114.67 101 -172c-133 -112 -377 -223 -529 -270c-18.667 58 -37.333 116 -56 174zM648 1422l-189 -987c-5 -30 -8 -57 -8 -81c0 -107 54 -157 173 -157c93 0 196 35 275 87c23.667 -67 47.333 -134 71 -201
c-100 -71 -248 -101 -372 -101c-213 0 -412 131 -412 306c0 29 3 59 9 91c65.667 354.333 131.333 708.67 197 1063c85.333 -6.66992 170.667 -13.3301 256 -20z" />
    <glyph glyph-name="Lcommaaccent" unicode="&#x13b;" 
d="M300 -125h270c-14 -71.667 -28 -143.333 -42 -215c-29 -151 -80 -219 -211 -278c-36.667 41.667 -73.333 83.333 -110 125c61 42 93 81 106 147h-56c14.333 73.667 28.667 147.333 43 221zM81 -3c86.333 442.667 172.667 885.333 259 1328h254
c-72.667 -372.667 -145.333 -745.333 -218 -1118h428c60 3 71 6 118 21c11.333 -65.667 22.667 -131.333 34 -197c-50 -16 -116 -34 -191 -34h-684z" />
    <glyph glyph-name="lcommaaccent" unicode="&#x13c;" 
d="M346 -140h270c-14 -71.667 -28 -143.333 -42 -215c-29 -151 -80 -219 -211 -278c-36.667 41.667 -73.333 83.333 -110 125c61 42 93 81 106 147h-56c14.333 73.667 28.667 147.333 43 221zM648 1422l-189 -987c-5 -30 -8 -57 -8 -81c0 -107 54 -157 173 -157
c93 0 196 35 275 87c23.667 -67 47.333 -134 71 -201c-100 -71 -248 -101 -372 -101c-213 0 -412 131 -412 306c0 29 3 59 9 91c65.667 354.333 131.333 708.67 197 1063c85.333 -6.66992 170.667 -13.3301 256 -20z" />
    <glyph glyph-name="Lcaron" unicode="&#x13d;" 
d="M972 1274c-30 -115 -50 -226 -85 -380l-186 22c14 145 35 290 51 395zM81 -3c86.333 442.667 172.667 885.333 259 1328h254c-72.667 -372.667 -145.333 -745.333 -218 -1118h428c60 3 71 6 118 21c11.333 -65.667 22.667 -131.333 34 -197c-50 -16 -116 -34 -191 -34
h-684z" />
    <glyph glyph-name="lcaron" unicode="&#x13e;" 
d="M1019 1393c-30 -115 -50 -226 -85 -380l-186 22c14 145 35 290 51 395zM648 1422l-189 -987c-5 -30 -8 -57 -8 -81c0 -107 54 -157 173 -157c93 0 196 35 275 87c23.667 -67 47.333 -134 71 -201c-100 -71 -248 -101 -372 -101c-213 0 -412 131 -412 306c0 29 3 59 9 91
c65.667 354.333 131.333 708.67 197 1063c85.333 -6.66992 170.667 -13.3301 256 -20z" />
    <glyph glyph-name="Ldot" unicode="&#x13f;" 
d="M602.429 834.657h257.5c-16.6211 -81.627 -33.2432 -163.255 -49.8652 -244.881h-257.5c16.6221 81.626 33.2441 163.254 49.8652 244.881zM81 -3c86.333 442.667 172.667 885.333 259 1328h254c-72.667 -372.667 -145.333 -745.333 -218 -1118h428c60 3 71 6 118 21
c11.333 -65.667 22.667 -131.333 34 -197c-50 -16 -116 -34 -191 -34h-684z" />
    <glyph glyph-name="ldot" unicode="&#x140;" 
d="M674.429 834.657h257.5c-16.6211 -81.627 -33.2432 -163.255 -49.8652 -244.881h-257.5c16.6221 81.626 33.2441 163.254 49.8652 244.881zM648 1422l-189 -987c-5 -30 -8 -57 -8 -81c0 -107 54 -157 173 -157c93 0 196 35 275 87c23.667 -67 47.333 -134 71 -201
c-100 -71 -248 -101 -372 -101c-213 0 -412 131 -412 306c0 29 3 59 9 91c65.667 354.333 131.333 708.67 197 1063c85.333 -6.66992 170.667 -13.3301 256 -20z" />
    <glyph glyph-name="Lslash" unicode="&#x141;" 
d="M292 513c-48.667 -23.333 -97.333 -46.667 -146 -70c-21.667 64.667 -43.333 129.333 -65 194c86.333 41.667 172.667 83.333 259 125c36.667 187.667 73.333 375.33 110 563h254l-84 -429c85.333 41 170.667 82 256 123c21.667 -65 43.333 -130 65 -195l-369 -177
c-28.667 -146.667 -57.333 -293.333 -86 -440h318c60 3 71 6 118 21c11.333 -65.667 22.667 -131.333 34 -197c-50 -16 -116 -34 -191 -34h-574c33.667 172 67.333 344 101 516z" />
    <glyph glyph-name="lslash" unicode="&#x142;" 
d="M547 1430h254c-19 -96 -51 -268 -87 -451c87.667 42 175.333 84 263 126c21.667 -65 43.33 -130 65 -195c-125.333 -60 -250.667 -120 -376 -180c-48 -246 -88 -456 -88 -456c-2.712 -14.055 -4 -26 -4 -36c0 -39 21 -56 94 -56c93 0 160 33 231 91
c20 -63.333 40 -126.667 60 -190c-100 -71 -256 -101 -380 -101c-85 0 -173.935 14.1074 -213 38c-50.914 31.1395 -64 77 -64 122c0 22 3 44 7 64c25.333 129.667 50.667 259.333 76 389c-45.667 -22 -91.333 -44 -137 -66c-21.667 64.667 -43.333 129.333 -65 194
c83.333 40 166.667 80 250 120l75 387c-49 0 -141 -6 -240 -28c2.333 62 4.667 124 7 186c99 28 192 42 272 42z" />
    <glyph glyph-name="Nacute" unicode="&#x143;" 
d="M574 1489c152 48 348 160 484 268c33.667 -57.3301 67.333 -114.67 101 -172c-133 -112 -377 -223 -529 -270c-18.667 58 -37.333 116 -56 174zM616 0c-40 259 -117 626 -208 845c-17.333 -91.667 -34.667 -183.333 -52 -275c-57 -299 -81 -418 -111 -573h-246
c86.333 442.667 172.667 885.333 259 1328c69.667 -2.33008 139.333 -4.66992 209 -7c89 -188 232 -662 253 -911c14.8691 122.588 21.4053 249.835 45 371c37 190 76 377 119 551c81.333 -0.330078 162.67 -0.669922 244 -1c-28 -115 -59.8398 -267.03 -92 -433
c-44.7734 -231.044 -91.6914 -489.869 -137 -725c-11.1699 -57.9668 -24 -116 -34 -170h-249z" />
    <glyph glyph-name="nacute" unicode="&#x144;" 
d="M529 1221c152 48 348 160 484 268c33.667 -57.3301 67.333 -114.67 101 -172c-133 -112 -377 -223 -529 -270c-18.667 58 -37.333 116 -56 174zM423 821c99 114 181 205 383 205c124 0 218 -50 218 -173c0 -17 -2 -37 -6 -57
c-33.667 -172.667 -67.333 -345.333 -101 -518c-2 -8 -2 -14 -2 -21c0 -50 41 -70 85 -97c-51.667 -66.667 -103.333 -133.333 -155 -200c-80 27 -195 89 -195 216c0 14 2 30 5 46l93 477c5 25 8 47 8 65c0 35 -11 55 -40 55c-106 0 -267 -197 -341 -315l-99 -504h-251
c45.667 235.333 91.333 470.667 137 706c23 118 30 170 30 218c0 25 -2 48 -4 80c80.333 16 160.667 32 241 48c1 -5 2 -18 2 -35c0 -56 -6 -158 -8 -196z" />
    <glyph glyph-name="Ncommaaccent" unicode="&#x145;" 
d="M280 -125h270c-14 -71.667 -28 -143.333 -42 -215c-29 -151 -80 -219 -211 -278c-36.667 41.667 -73.333 83.333 -110 125c61 42 93 81 106 147h-56c14.333 73.667 28.667 147.333 43 221zM616 0c-40 259 -117 626 -208 845c-17.333 -91.667 -34.667 -183.333 -52 -275
c-57 -299 -81 -418 -111 -573h-246c86.333 442.667 172.667 885.333 259 1328c69.667 -2.33008 139.333 -4.66992 209 -7c89 -188 232 -662 253 -911c14.8691 122.588 21.4053 249.835 45 371c37 190 76 377 119 551c81.333 -0.330078 162.67 -0.669922 244 -1
c-28 -115 -59.8398 -267.03 -92 -433c-44.7734 -231.044 -91.6914 -489.869 -137 -725c-11.1699 -57.9668 -24 -116 -34 -170h-249z" />
    <glyph glyph-name="ncommaaccent" unicode="&#x146;" 
d="M284 -162h270c-14 -71.667 -28 -143.333 -42 -215c-29 -151 -80 -219 -211 -278c-36.667 41.667 -73.333 83.333 -110 125c61 42 93 81 106 147h-56c14.333 73.667 28.667 147.333 43 221zM423 821c99 114 181 205 383 205c124 0 218 -50 218 -173c0 -17 -2 -37 -6 -57
c-33.667 -172.667 -67.333 -345.333 -101 -518c-2 -8 -2 -14 -2 -21c0 -50 41 -70 85 -97c-51.667 -66.667 -103.333 -133.333 -155 -200c-80 27 -195 89 -195 216c0 14 2 30 5 46l93 477c5 25 8 47 8 65c0 35 -11 55 -40 55c-106 0 -267 -197 -341 -315l-99 -504h-251
c45.667 235.333 91.333 470.667 137 706c23 118 30 170 30 218c0 25 -2 48 -4 80c80.333 16 160.667 32 241 48c1 -5 2 -18 2 -35c0 -56 -6 -158 -8 -196z" />
    <glyph glyph-name="Ncaron" unicode="&#x147;" 
d="M695 1318c-102.667 99 -205.333 198 -308 297l171 138c61.667 -63 123.333 -126 185 -189l279 201l108 -156zM616 0c-40 259 -117 626 -208 845c-17.333 -91.667 -34.667 -183.333 -52 -275c-57 -299 -81 -418 -111 -573h-246c86.333 442.667 172.667 885.333 259 1328
c69.667 -2.33008 139.333 -4.66992 209 -7c89 -188 232 -662 253 -911c14.8691 122.588 21.4053 249.835 45 371c37 190 76 377 119 551c81.333 -0.330078 162.67 -0.669922 244 -1c-28 -115 -59.8398 -267.03 -92 -433c-44.7734 -231.044 -91.6914 -489.869 -137 -725
c-11.1699 -57.9668 -24 -116 -34 -170h-249z" />
    <glyph glyph-name="ncaron" unicode="&#x148;" 
d="M711 1048c-102.667 99 -205.333 198 -308 297l171 138c61.667 -63 123.333 -126 185 -189l279 201l108 -156zM423 821c99 114 181 205 383 205c124 0 218 -50 218 -173c0 -17 -2 -37 -6 -57c-33.667 -172.667 -67.333 -345.333 -101 -518c-2 -8 -2 -14 -2 -21
c0 -50 41 -70 85 -97c-51.667 -66.667 -103.333 -133.333 -155 -200c-80 27 -195 89 -195 216c0 14 2 30 5 46l93 477c5 25 8 47 8 65c0 35 -11 55 -40 55c-106 0 -267 -197 -341 -315l-99 -504h-251c45.667 235.333 91.333 470.667 137 706c23 118 30 170 30 218
c0 25 -2 48 -4 80c80.333 16 160.667 32 241 48c1 -5 2 -18 2 -35c0 -56 -6 -158 -8 -196z" />
    <glyph glyph-name="Eng" unicode="&#x14a;" 
d="M717 1296c239 0 336 -132 336 -314c0 -39 -4.91 -80.017 -13 -122c-44.518 -231.092 -85 -460 -131 -695c-2.333 -11.333 -4.667 -22.667 -7 -34c-50 -256 -129 -527 -629 -527h-34c14.333 74 28.667 148 43 222c285 0 332 116 364 280
c48.333 248.667 96.667 497.333 145 746c9 46 14 83 14 114c0 92 -42 121 -131 121c-105 0 -203 -149 -252 -217c-56.333 -290 -112.667 -580 -169 -870c-84.667 -1 -169.333 -2 -254 -3l207 1062c7 38 10 73 10 103c0 59 -10 97 -10 97c71.333 20 142.667 40 214 60
c8 -29 16 -54 16 -97c0 -15 -1 -32 -3 -51c90 75 168 125 284 125z" />
    <glyph glyph-name="eng" unicode="&#x14b;" 
d="M443 927c66 50 171 99 281 99c146 0 253 -52 253 -178c0 -16 -1 -34 -5 -52c-33.667 -172.667 -67.333 -345.333 -101 -518c-77 -397 -197 -685 -611 -685l42 219c216 0 269 222 300 379c32.333 169.333 64.667 338.667 97 508c5 24 8 45 8 63c0 36 -14 57 -59 57
c-63 0 -136 -38 -235 -112c-45.333 -235.667 -90.667 -471.333 -136 -707h-252c45.6667 235.333 91.333 470.667 137 706c23 118 30 170 30 218c0 25 -2 48 -4 80c80.333 16 160.667 32 241 48c4 -21 14 -65 14 -109v-16z" />
    <glyph glyph-name="Omacron" unicode="&#x14c;" 
d="M1046 1610c-12.667 -64.6699 -25.333 -129.33 -38 -194c-5.65527 0 -11.3486 0.19043 -17 0c-58 -2 -157 -7 -231 -7s-166 1 -234 3c-5.99902 0.179688 -12.0068 0.669922 -18 1c12.667 65.6699 25.333 131.33 38 197c6.27441 -0.660156 12.6973 -1.80957 19 -2
c65 -2 179 -3 271 -3c61 0 148 5 193 5h17zM709 1350c134 0 349 -51 349 -433c0 -76 -9 -165 -28 -270c-0.669922 -3.66699 -1.33008 -7.33301 -2 -11c-32 -167 -94.5957 -324.285 -161 -419c-103.368 -147.439 -270 -233 -435 -233c-122 0 -262.701 41.1816 -324 143
c-39.8047 66.1172 -57 147 -57 240c0 65 8.15332 135.97 23 212c68.709 351.86 159.119 510.89 248 608c84.1123 91.9004 230 160 387 163zM471 187c137 0 260 276 296 453c1.33301 5.66699 2.66699 11.333 4 17c14 69 29 168 29 258c0 123 -29 232 -131 232
c-139 0 -277.327 -278.135 -332 -555c-12.8418 -65.0312 -23 -134 -23 -196c0 -116 36 -209 157 -209z" />
    <glyph glyph-name="omacron" unicode="&#x14d;" 
d="M983 1381.4c-12.667 -64.6699 -25.333 -129.33 -38 -194c-5.65527 0 -11.3486 0.189453 -17 0c-58 -2 -157 -7 -231 -7s-166 1 -234 3c-5.99902 0.179688 -12.0068 0.669922 -18 1c12.667 65.6699 25.333 131.33 38 197c6.27344 -0.660156 12.6973 -1.81055 19 -2
c65 -2 179 -3 271 -3c61 0 148 5 193 5h17zM598 247c57 52 91.8652 155.689 115 283c1.08691 5.9834 1.96777 10.0059 3 16c7.75684 45.041 13 87 13 125c0 94 -31 159 -123 159c-151 0 -223.313 -139.941 -263 -348c-7.05566 -36.9893 -11 -72 -11 -103
c0 -110 45 -182 139 -182c55 1 84 14 127 50zM431 -6c-254 0 -359 127 -359 327c0 44 5.0498 91.9902 15 143c72.3594 370.93 252 568 544 568c197 0 294 -69 338 -201c13 -39 18 -86 18 -136c0 -51 -5.26172 -102.949 -15 -152c-56.5176 -284.69 -203 -549 -539 -549h-2z
" />
    <glyph glyph-name="Obreve" unicode="&#x14e;" 
d="M787 1544c108 0 187 63 208 141l213 -30c-58 -177 -210 -294 -450 -294c-225 0 -343 78 -347 303l225 30c4 -117 76 -150 151 -150zM709 1350c134 0 349 -51 349 -433c0 -76 -9 -165 -28 -270c-0.669922 -3.66699 -1.33008 -7.33301 -2 -11
c-32 -167 -94.5957 -324.285 -161 -419c-103.368 -147.439 -270 -233 -435 -233c-122 0 -262.701 41.1816 -324 143c-39.8047 66.1172 -57 147 -57 240c0 65 8.15332 135.97 23 212c68.709 351.86 159.119 510.89 248 608c84.1123 91.9004 230 160 387 163zM471 187
c137 0 260 276 296 453c1.33301 5.66699 2.66699 11.333 4 17c14 69 29 168 29 258c0 123 -29 232 -131 232c-139 0 -277.327 -278.135 -332 -555c-12.8418 -65.0312 -23 -134 -23 -196c0 -116 36 -209 157 -209z" />
    <glyph glyph-name="obreve" unicode="&#x14f;" 
d="M756 1253c108 0 187 63 208 141l213 -30c-58 -177 -210 -294 -450 -294c-225 0 -343 78 -347 303l225 30c4 -117 76 -150 151 -150zM598 247c57 52 91.8652 155.689 115 283c1.08691 5.9834 1.96777 10.0059 3 16c7.75684 45.041 13 87 13 125c0 94 -31 159 -123 159
c-151 0 -223.313 -139.941 -263 -348c-7.05566 -36.9893 -11 -72 -11 -103c0 -110 45 -182 139 -182c55 1 84 14 127 50zM431 -6c-254 0 -359 127 -359 327c0 44 5.0498 91.9902 15 143c72.3594 370.93 252 568 544 568c197 0 294 -69 338 -201c13 -39 18 -86 18 -136
c0 -51 -5.26172 -102.949 -15 -152c-56.5176 -284.69 -203 -549 -539 -549h-2z" />
    <glyph glyph-name="Ohungarumlaut" unicode="&#x150;" 
d="M756 1485c135 95 281 261 378 402c58.6699 -42.3301 117.33 -84.6699 176 -127c-93 -144 -299 -324 -435 -418c-39.667 47.6699 -79.333 95.3301 -119 143zM374 1492c135 95 281 261 378 402c58.667 -42.3301 117.333 -84.6699 176 -127c-93 -144 -298 -324 -434 -418
c-40 47.6699 -80 95.3301 -120 143zM709 1350c134 0 349 -51 349 -433c0 -76 -9 -165 -28 -270c-0.669922 -3.66699 -1.33008 -7.33301 -2 -11c-32 -167 -94.5957 -324.285 -161 -419c-103.368 -147.439 -270 -233 -435 -233c-122 0 -262.701 41.1816 -324 143
c-39.8047 66.1172 -57 147 -57 240c0 65 8.15332 135.97 23 212c68.709 351.86 159.119 510.89 248 608c84.1123 91.9004 230 160 387 163zM471 187c137 0 260 276 296 453c1.33301 5.66699 2.66699 11.333 4 17c14 69 29 168 29 258c0 123 -29 232 -131 232
c-139 0 -277.327 -278.135 -332 -555c-12.8418 -65.0312 -23 -134 -23 -196c0 -116 36 -209 157 -209z" />
    <glyph glyph-name="ohungarumlaut" unicode="&#x151;" 
d="M694 1177c135 95 281 261 378 402c58.6699 -42.3301 117.33 -84.6699 176 -127c-93 -144 -299 -324 -435 -418c-39.667 47.6699 -79.333 95.3301 -119 143zM312 1184c135 95 281 261 378 402c58.667 -42.3301 117.333 -84.6699 176 -127c-93 -144 -298 -324 -434 -418
c-40 47.6699 -80 95.3301 -120 143zM598 247c57 52 91.8652 155.689 115 283c1.08691 5.9834 1.96777 10.0059 3 16c7.75684 45.041 13 87 13 125c0 94 -31 159 -123 159c-151 0 -223.313 -139.941 -263 -348c-7.05566 -36.9893 -11 -72 -11 -103c0 -110 45 -182 139 -182
c55 1 84 14 127 50zM431 -6c-254 0 -359 127 -359 327c0 44 5.0498 91.9902 15 143c72.3594 370.93 252 568 544 568c197 0 294 -69 338 -201c13 -39 18 -86 18 -136c0 -51 -5.26172 -102.949 -15 -152c-56.5176 -284.69 -203 -549 -539 -549h-2z" />
    <glyph glyph-name="Racute" unicode="&#x154;" 
d="M488 1515c152 48 348 160 484 268c33.667 -57.3301 67.333 -114.67 101 -172c-133 -112 -377 -223 -529 -270c-18.667 58 -37.333 116 -56 174zM708 548c54 -124 145 -275 188 -341c15 -16 56 -52 96 -63c-51.333 -62.667 -102.667 -125.333 -154 -188
c-56 9 -106 59 -132 102c-76 109 -191 376 -228 472c-35 3 -71 10 -112 28l-108 -558h-243c73.667 378.667 147.333 757.333 221 1136c13 68 21 116 29 178c43 4 160 15 221 15c250 0 468.074 -7.95996 560 -161c24.0195 -39.9902 36 -95 36 -153
c0 -29 -3.15039 -57.9707 -9 -87c-45.1201 -223.767 -183 -350 -365 -380zM807 906c4.05664 20.9893 6 39 6 56c0 125 -103 162 -274 162c-26 0 -34 0 -63 -1c-23 -118.33 -46 -236.667 -69 -355c59 -27 115 -42 158 -42h8c170 0 214.276 77.9473 234 180z" />
    <glyph glyph-name="racute" unicode="&#x155;" 
d="M551.5 1223c152 48 348 160 484 268c33.667 -57.3301 67.333 -114.67 101 -172c-133 -112 -377 -223 -529 -270c-18.667 58 -37.333 116 -56 174zM514 750c78 120 192 270 353 270c141 0 224 -73 224 -210c0 -25 0 -62 -6 -91c-2.07031 -9.98633 -4 -20.001 -6 -30
c-84.333 -0.666992 -168.667 -1.33301 -253 -2c3 13 15 51 15 81c0 22 -6 40 -27 40c-56 0 -277 -288 -367 -532l-57 -294h-252c46.667 240.667 93.333 481.333 140 722c1 6 2 13 2 19c0 48 -37 86 -82 135c61.333 62 122.667 124 184 186c51 -49 132 -92 132 -294z" />
    <glyph glyph-name="Rcommaaccent" unicode="&#x156;" 
d="M716 -178h270c-14 -71.667 -28 -143.333 -42 -215c-29 -151 -80 -219 -211 -278c-36.667 41.667 -73.333 83.333 -110 125c61 42 93 81 106 147h-56c14.333 73.667 28.667 147.333 43 221zM708 548c54 -124 145 -275 188 -341c15 -16 56 -52 96 -63
c-51.333 -62.667 -102.667 -125.333 -154 -188c-56 9 -106 59 -132 102c-76 109 -191 376 -228 472c-35 3 -71 10 -112 28l-108 -558h-243c73.667 378.667 147.333 757.333 221 1136c13 68 21 116 29 178c43 4 160 15 221 15c250 0 468.074 -7.95996 560 -161
c24.0195 -39.9902 36 -95 36 -153c0 -29 -3.15039 -57.9707 -9 -87c-45.1201 -223.767 -183 -350 -365 -380zM807 906c4.05664 20.9893 6 39 6 56c0 125 -103 162 -274 162c-26 0 -34 0 -63 -1c-23 -118.33 -46 -236.667 -69 -355c59 -27 115 -42 158 -42h8
c170 0 214.276 77.9473 234 180z" />
    <glyph glyph-name="rcommaaccent" unicode="&#x157;" 
d="M110.5 -125h270c-14 -71.667 -28 -143.333 -42 -215c-29 -151 -80 -219 -211 -278c-36.667 41.667 -73.333 83.333 -110 125c61 42 93 81 106 147h-56c14.333 73.667 28.667 147.333 43 221zM514 750c78 120 192 270 353 270c141 0 224 -73 224 -210c0 -25 0 -62 -6 -91
c-2.07031 -9.98633 -4 -20.001 -6 -30c-84.333 -0.666992 -168.667 -1.33301 -253 -2c3 13 15 51 15 81c0 22 -6 40 -27 40c-56 0 -277 -288 -367 -532l-57 -294h-252c46.667 240.667 93.333 481.333 140 722c1 6 2 13 2 19c0 48 -37 86 -82 135
c61.333 62 122.667 124 184 186c51 -49 132 -92 132 -294z" />
    <glyph glyph-name="Rcaron" unicode="&#x158;" 
d="M612 1331c-102.667 99 -205.333 198 -308 297l171 138c61.667 -63 123.333 -126 185 -189l279 201l108 -156zM708 548c54 -124 145 -275 188 -341c15 -16 56 -52 96 -63c-51.333 -62.667 -102.667 -125.333 -154 -188c-56 9 -106 59 -132 102c-76 109 -191 376 -228 472
c-35 3 -71 10 -112 28l-108 -558h-243c73.667 378.667 147.333 757.333 221 1136c13 68 21 116 29 178c43 4 160 15 221 15c250 0 468.074 -7.95996 560 -161c24.0195 -39.9902 36 -95 36 -153c0 -29 -3.15039 -57.9707 -9 -87c-45.1201 -223.767 -183 -350 -365 -380z
M807 906c4.05664 20.9893 6 39 6 56c0 125 -103 162 -274 162c-26 0 -34 0 -63 -1c-23 -118.33 -46 -236.667 -69 -355c59 -27 115 -42 158 -42h8c170 0 214.276 77.9473 234 180z" />
    <glyph glyph-name="rcaron" unicode="&#x159;" 
d="M705.5 1055c-102.667 99 -205.333 198 -308 297l171 138c61.667 -63 123.333 -126 185 -189l279 201l108 -156zM514 750c78 120 192 270 353 270c141 0 224 -73 224 -210c0 -25 0 -62 -6 -91c-2.07031 -9.98633 -4 -20.001 -6 -30
c-84.333 -0.666992 -168.667 -1.33301 -253 -2c3 13 15 51 15 81c0 22 -6 40 -27 40c-56 0 -277 -288 -367 -532l-57 -294h-252c46.667 240.667 93.333 481.333 140 722c1 6 2 13 2 19c0 48 -37 86 -82 135c61.333 62 122.667 124 184 186c51 -49 132 -92 132 -294z" />
    <glyph glyph-name="Sacute" unicode="&#x15a;" 
d="M437 1507c152 48 348 160 484 268c33.667 -57.3301 67.333 -114.67 101 -172c-133 -112 -377 -223 -529 -270c-18.667 58 -37.333 116 -56 174zM292 702c-81 41 -128 135 -128 235c0 23 2.98047 46.0039 8 69c47.8135 219.04 226 322 481 322h9c240 0 383 -46 461 -136
l-180 -192c-81 102 -246 118 -316 118c-50 0 -173 -36 -186 -104c-3 -14 -4 -27 -4 -38c0 -67 44.0664 -86.8438 90 -106c114.161 -47.6104 183 -57 303 -118c82 -44 156 -125 156 -266c0 -28 -2.81738 -57.0352 -9 -90c-56.3281 -300.304 -293 -405 -533 -405h-19
c-295 8 -402 146 -402 326c0 34 4 69 11 105c88.667 -0.666992 177.333 -1.33301 266 -2c-5 -26 -8 -50 -8 -71c0 -97 54 -149 179 -149c79 0 216.423 36.1152 245 182c2.94141 15.0107 4 29 4 42c0 82 -52.9668 128.069 -115 158c-105.943 51.1182 -192 59 -313 120z" />
    <glyph glyph-name="sacute" unicode="&#x15b;" 
d="M406 1197c152 48 348 160 484 268c33.667 -57.3301 67.333 -114.67 101 -172c-133 -112 -377 -223 -529 -270c-18.667 58 -37.333 116 -56 174zM311 549c-60.1777 32.667 -98 92 -98 173c0 18 1.96875 38.0059 6 59c35.7236 186.052 238 248 413 248
c139 0 256 -16 394 -82c-39.333 -63.333 -78.667 -126.667 -118 -190c-80 52 -216 72 -312 72c-82 0 -117.682 -22.0713 -126 -61c-1.92578 -9.01465 -3 -16 -3 -23c0 -17 6 -31 24 -44c213 -94 426 -132 426 -346c0 -24 -2.82715 -49.0332 -8 -77
c-29.9961 -162.179 -193 -250 -305 -278c-59 -13 -120 -20 -177 -20c-224 0 -352 104 -352 274c0 24 3 49 8 76h253c-4 -18 -5 -34 -5 -49c0 -71 43 -99 133 -99c59 0 177.691 19.7402 193 108c2.24609 12.9521 4 25 4 36c0 38 -16 63 -49 89
c-60 44 -217.253 88.5391 -301 134z" />
    <glyph glyph-name="Scircumflex" unicode="&#x15c;" 
d="M760 1765c107.333 -97 214.667 -194 322 -291c-56.3301 -52 -112.667 -104 -169 -156l-201 201l-258 -189l-117 138zM292 702c-81 41 -128 135 -128 235c0 23 2.98047 46.0039 8 69c47.8135 219.04 226 322 481 322h9c240 0 383 -46 461 -136l-180 -192
c-81 102 -246 118 -316 118c-50 0 -173 -36 -186 -104c-3 -14 -4 -27 -4 -38c0 -67 44.0664 -86.8438 90 -106c114.161 -47.6104 183 -57 303 -118c82 -44 156 -125 156 -266c0 -28 -2.81738 -57.0352 -9 -90c-56.3281 -300.304 -293 -405 -533 -405h-19
c-295 8 -402 146 -402 326c0 34 4 69 11 105c88.667 -0.666992 177.333 -1.33301 266 -2c-5 -26 -8 -50 -8 -71c0 -97 54 -149 179 -149c79 0 216.423 36.1152 245 182c2.94141 15.0107 4 29 4 42c0 82 -52.9668 128.069 -115 158c-105.943 51.1182 -192 59 -313 120z" />
    <glyph glyph-name="scircumflex" unicode="&#x15d;" 
d="M725 1489c107.333 -97 214.667 -194 322 -291c-56.3301 -52 -112.667 -104 -169 -156l-201 201l-258 -189l-117 138zM311 549c-60.1777 32.667 -98 92 -98 173c0 18 1.96875 38.0059 6 59c35.7236 186.052 238 248 413 248c139 0 256 -16 394 -82
c-39.333 -63.333 -78.667 -126.667 -118 -190c-80 52 -216 72 -312 72c-82 0 -117.682 -22.0713 -126 -61c-1.92578 -9.01465 -3 -16 -3 -23c0 -17 6 -31 24 -44c213 -94 426 -132 426 -346c0 -24 -2.82715 -49.0332 -8 -77c-29.9961 -162.179 -193 -250 -305 -278
c-59 -13 -120 -20 -177 -20c-224 0 -352 104 -352 274c0 24 3 49 8 76h253c-4 -18 -5 -34 -5 -49c0 -71 43 -99 133 -99c59 0 177.691 19.7402 193 108c2.24609 12.9521 4 25 4 36c0 38 -16 63 -49 89c-60 44 -217.253 88.5391 -301 134z" />
    <glyph glyph-name="Scedilla" unicode="&#x15e;" 
d="M292 702c-79.934 40.132 -129 107 -129 216c0 27 2.877 56.024 9 88c42.155 220.16 226 322 481 322h9c240 0 421 -82 433 -250c-97.667 -34 -195.333 -68 -293 -102c-26 101 -105 142 -175 142c-86 0 -172.249 -36.16 -186 -104c-2.844 -14.03 -4 -27 -4 -38
c0 -67 44.066 -86.844 90 -106c114.161 -47.61 183 -57 303 -118c82 -44 156 -125 156 -266c0 -28 -2.823 -57.034 -9 -90c-47.636 -254.248 -224 -368 -422 -397c-4 -18 -14 -67 -15 -70c85 -4 153 -49 153 -138c0 -12 -1.148 -23.971 -4 -38
c-26.366 -129.707 -153 -202 -311 -202c-66 0 -155 18 -204 54c29.667 49 59.333 98 89 147c30 -18 72 -29 123 -29c36 0 73 11 83 49v2c1 3 1 7 1 10c0 25 -20 46 -62 46c-48 0 -81 -3 -111 -13c12 60.333 24 120.667 36 181c-225 32 -310 159 -310 319c0 34 4 69 11 105
c88.333 -0.667 176.667 -1.333 265 -2c-5 -26 -8 -49 -8 -70c0 -98 55 -150 180 -150c108 0 216.423 36.115 245 182c2.941 15.011 4 29 4 42c0 82 -52.967 128.069 -115 158c-105.943 51.118 -191.9 59.2 -313 120z" />
    <glyph glyph-name="scedilla" unicode="&#x15f;" 
d="M281 549c-60.178 32.667 -98 92 -98 173c0 18 1.969 38.006 6 59c35.724 186.052 238 248 413 248c139 0 290 -15 377 -136c-69.667 -54.333 -139.333 -108.667 -209 -163c-43 58 -108 99 -204 99c-82 0 -117.682 -22.071 -126 -61c-1.926 -9.015 -3 -16 -3 -23
c0 -17 6 -31 24 -44c213 -94 426 -132 426 -346c0 -24 -2.827 -49.033 -8 -77c-29.996 -162.179 -192.554 -252.117 -305 -278c-18.912 -4.35294 -37 -8 -57 -11l-5 -25c-4 -20 -9 -44 -9 -46c84 -4 152 -49 152 -137c0 -12 -1.148 -24.971 -4 -39
c-26.366 -129.707 -153 -202 -311 -202c-66 0 -155 18 -204 54c29.667 49 59.333 98 89 147c30 -18 73 -29 124 -29c36 0 72 11 82 49v2c1 4 1 8 1 11c0 25 -19 45 -61 45c-48 0 -82 -3 -112 -13c12 60.667 24 121.333 36 182c-161 27 -250 124 -250 266c0 24 3 49 8 76h253
c-4 -18 -5 -34 -5 -49c0 -71 43 -99 133 -99c59 0 177.691 19.74 193 108c2.246 12.952 4 25 4 36c0 38 -16 63 -49 89c-60 44 -217.253 88.539 -301 134z" />
    <glyph glyph-name="Scaron" unicode="&#x160;" 
d="M685 1347c-102.667 99 -205.333 198 -308 297l171 138c61.667 -63 123.333 -126 185 -189l279 201l108 -156zM292 702c-81 41 -128 135 -128 235c0 23 2.98047 46.0039 8 69c47.8135 219.04 226 322 481 322h9c240 0 383 -46 461 -136l-180 -192
c-81 102 -246 118 -316 118c-50 0 -173 -36 -186 -104c-3 -14 -4 -27 -4 -38c0 -67 44.0664 -86.8438 90 -106c114.161 -47.6104 183 -57 303 -118c82 -44 156 -125 156 -266c0 -28 -2.81738 -57.0352 -9 -90c-56.3281 -300.304 -293 -405 -533 -405h-19
c-295 8 -402 146 -402 326c0 34 4 69 11 105c88.667 -0.666992 177.333 -1.33301 266 -2c-5 -26 -8 -50 -8 -71c0 -97 54 -149 179 -149c79 0 216.423 36.1152 245 182c2.94141 15.0107 4 29 4 42c0 82 -52.9668 128.069 -115 158c-105.943 51.1182 -192 59 -313 120z" />
    <glyph glyph-name="scaron" unicode="&#x161;" 
d="M650 1046c-102.667 99 -205.333 198 -308 297l171 138c61.667 -63 123.333 -126 185 -189l279 201l108 -156zM311 549c-60.1777 32.667 -98 92 -98 173c0 18 1.96875 38.0059 6 59c35.7236 186.052 238 248 413 248c139 0 256 -16 394 -82
c-39.333 -63.333 -78.667 -126.667 -118 -190c-80 52 -216 72 -312 72c-82 0 -117.682 -22.0713 -126 -61c-1.92578 -9.01465 -3 -16 -3 -23c0 -17 6 -31 24 -44c213 -94 426 -132 426 -346c0 -24 -2.82715 -49.0332 -8 -77c-29.9961 -162.179 -193 -250 -305 -278
c-59 -13 -120 -20 -177 -20c-224 0 -352 104 -352 274c0 24 3 49 8 76h253c-4 -18 -5 -34 -5 -49c0 -71 43 -99 133 -99c59 0 177.691 19.7402 193 108c2.24609 12.9521 4 25 4 36c0 38 -16 63 -49 89c-60 44 -217.253 88.5391 -301 134z" />
    <glyph glyph-name="Tcommaaccent" unicode="&#x162;" 
d="M278 -9c73 375.667 146 751.333 219 1127c-198 0 -240 -1 -316 -1c13.333 69 26.667 138 40 207c122 0 577 1 765 1c73 0 140 -9 163 -16c-33 -67.67 -66 -135.33 -99 -203c0 0 -50 12 -110 12h-183c-73 -375.667 -146 -751.333 -219 -1127h-19c-4 -21 -13 -59 -13 -61
c85 -4 153 -49 153 -138c0 -12 -1.148 -23.971 -4 -38c-26.366 -129.707 -153 -203 -311 -203c-66 0 -155 18 -204 54c29.667 49.333 59.333 98.667 89 148c30 -18 72 -30 123 -30c36 0 73 12 83 50v2c1 4 1 8 1 11c0 24 -19 44 -61 44c-48 0 -81 -2 -111 -12
c11 57.667 22 115.333 33 173h-19z" />
    <glyph glyph-name="tcommaaccent" unicode="&#x163;" 
d="M398 435c-2.667 -13.333 -5.333 -26.667 -8 -40c-6 -31 -9 -57 -9 -80c0 -73 31.995 -104.029 94 -115c16.999 -3.008 51 -4 64 -4c65 0 97 13 125 27c58 29 82 97 93 116c62.667 -33.333 125.333 -66.667 188 -100c-15 -28 -90.309 -138.42 -215 -204
c-47.115 -24.7796 -100 -35 -159 -39c-4 -21 -13 -61 -13 -63c85 -4 153 -49 153 -138c0 -12 -1.148 -23.971 -4 -38c-26.366 -129.707 -153 -202 -311 -202c-66 0 -155 18 -204 54c29.667 49 59.333 98 89 147c30 -18 72 -29 123 -29c36 0 72 11 82 49
c0.333 0.667 0.667 1.333 1 2c1 4 1 8 1 11c0 25 -19 45 -61 45c-48 0 -82 -3 -112 -13c11.667 60.333 23.333 120.667 35 181c-109 16 -188.609 57.832 -218 162c-8.169 28.951 -12 59 -12 89c0 45 8 92 18 144c3 14.333 6 28.667 9 43c19 90 44 208 81 371h-14
c-28 0 -57 -4 -84 -11c7.333 67.667 14.667 135.333 22 203c26 9 71 12 104 12h15c14 70 33 164 47 234c83.333 -2 166.667 -4 250 -6c-13 -66 -32 -155 -46 -223c109 -1 375 -4 383 -4l-42 -204c-137 0 -250 2 -383 2c-38 -167 -59 -279 -82 -379z" />
    <glyph glyph-name="Tcaron" unicode="&#x164;" 
d="M656 1341c-102.667 99 -205.333 198 -308 297l171 138c61.667 -63 123.333 -126 185 -189l279 201l108 -156zM280 0c72.333 372.667 144.667 745.333 217 1118c-198 0 -240 -1 -316 -1c13.333 69 26.667 138 40 207c122 0 577 1 765 1c73 0 140 -9 163 -16
c-33 -67.6699 -66 -135.33 -99 -203c0 0 -50 12 -110 12h-183c-72.333 -372.667 -144.667 -745.333 -217 -1118h-260z" />
    <glyph glyph-name="tcaron" unicode="&#x165;" 
d="M949 1476c-30 -115 -50 -227 -85 -381l-186 22c14 145 36 290 52 395zM977 145c-65 -34 -226 -151 -433 -151c-272 0 -367 153 -367 333c0 38 4 78 12 117l9 42c19 90 33 155 70 319h-14c-28 0 -56 -4 -84 -12c8 68 15 136 23 204c26 8 71 12 104 12h15
c14 70 34 171 48 241c83 -2 167 -4 250 -6c-13 -66 -33 -163 -47 -231c109 0 420 -4 428 -4c-14 -68 -29 -136 -43 -204c-137 0 -294 2 -427 2c-38 -166 -49 -225 -72 -325c-3 -13 -5 -27 -8 -40c-7 -35 -10 -66 -10 -93c0 -106 51 -153 150 -153c158 0 238 104 266 139
c3 0 130 -190 130 -190z" />
    <glyph glyph-name="Tbar" unicode="&#x166;" 
d="M378 504h-227c14 72.333 28 144.667 42 217h227c25.667 132.333 51.333 264.667 77 397c-198 0 -240 -1 -316 -1c13.333 69 26.667 138 40 207c122 0 577 1 765 1c73 0 140 -9 163 -16c-33 -67.67 -66 -135.33 -99 -203c0 0 -50 12 -110 12h-183
c-25.667 -132.333 -51.333 -264.667 -77 -397h209c-14 -72.333 -28 -144.667 -42 -217h-209c-33.333 -171 -66.667 -342 -100 -513h-260c33.333 171 66.667 342 100 513z" />
    <glyph glyph-name="tbar" unicode="&#x167;" 
d="M480 433c-2.333 -12.333 -4.667 -24.667 -7 -37c-6 -31 -9 -58 -9 -81c0 -74 31.774 -106.03 94 -115c17.897 -2.579 51 -4 64 -4c65 0 97.951 14.099 126 28c56.9 28.2 81 96 92 116c63 -33.333 126 -66.667 189 -100c-15 -28 -92.177 -139.662 -216 -204
c-65.092 -33.8217 -143 -42 -228 -42c-184 0 -328.545 21.8497 -370 170c-8.106 28.97 -12 58 -12 89c0 46 8 93 18 145c2.333 11.667 4.667 23.333 7 35h-199c13.3333 68.333 26.6667 136.667 40 205h203c11 49 23 104 37 167h-14c-28 0 -56 -4 -84 -12
c7.667 68 15.333 136 23 204c26 8 71 12 104 12h15c14 70 34 171 48 241c83.333 -2 166.667 -4 250 -6c-13 -66 -33 -163 -47 -231c109 0 420 -4 428 -4c-14.33 -68 -28.67 -136 -43 -204c-137 0 -294 2 -427 2c-14 -64 -27 -120 -38 -169h240
c-13.333 -68.333 -26.667 -136.667 -40 -205h-244z" />
    <glyph glyph-name="Utilde" unicode="&#x168;" 
d="M613 1673c216 0 209 -132 299 -132c50 0 87 31 106 100c55.3301 -18 110.67 -36 166 -54c-40 -96 -123 -224 -285 -224c-198 0 -193 130 -294 130c-42 0 -87 -37 -108 -100c-56.333 26 -112.667 52 -169 78c51 93 144 202 285 202zM888 1350
c82.667 -9.33008 165.33 -18.6699 248 -28c-17 -50 -24.3604 -85.1396 -33 -127c-1.86035 -9.03027 -3.01953 -19 -5 -29c-29.29 -147.94 -51 -278 -73 -391c-4 -19.667 -8 -39.333 -12 -59c-46 -237 -94.1328 -462.861 -232 -595c-101.098 -96.8975 -236 -126 -366 -131
c-255 0 -344 116 -344 325c0 43 4.18555 89.9756 11 141c10.2793 76.9619 32.0908 200.982 59 339c34.1152 174.977 75 373 112 534h258c-37 -168 -84.6152 -397.077 -122 -586c-9.89844 -50.0195 -18.9697 -98.0059 -27 -141c-11.9551 -64.0078 -22.2598 -116.99 -24 -154
c-1.1748 -24.9912 -3 -53 -3 -82c0 -81 16 -163 119 -166c202 9 248.643 230.877 304 518c24.2822 125.945 48.1738 274.966 82 448c14.0723 71.9902 26 121 48 184z" />
    <glyph glyph-name="utilde" unicode="&#x169;" 
d="M597 1379c216 0 209 -132 299 -132c50 0 87 31 106 100c55.3301 -18 110.67 -36 166 -54c-40 -96 -123 -224 -285 -224c-198 0 -193 130 -294 130c-42 0 -87 -37 -108 -100c-56.333 26 -112.667 52 -169 78c51 93 144 202 285 202zM815 -17c-58 29 -103 68 -135 250
c-78 -110 -178 -228 -329 -231h-9c-136 0 -296 18 -296 185c0 19 2.24707 40.9521 7 64c16.8721 81.8096 31.2324 156.955 50 253c38.4756 196.906 74 393 74 469c0 7 0 14 -1 19c86.333 9.33008 172.667 18.6699 259 28v-10c0 -100 -55 -358 -122 -712v-3
c0 -65 7 -80 52 -80c124 0 338 355 363 482c20.333 105.333 40.667 210.667 61 316h251c-46 -235.667 -92 -471.333 -138 -707c-1 -4 -1 -7 -1 -11c0 -50 48 -109 92 -129c-59.333 -61 -118.667 -122 -178 -183z" />
    <glyph glyph-name="Umacron" unicode="&#x16a;" 
d="M991 1622c-12.667 -64.6699 -25.333 -129.33 -38 -194c-5.65527 0 -11.3486 0.19043 -17 0c-58 -2 -157 -7 -231 -7s-166 1 -234 3c-5.99902 0.179688 -12.0068 0.669922 -18 1c12.667 65.6699 25.333 131.33 38 197c6.27441 -0.660156 12.6973 -1.80957 19 -2
c65 -2 179 -3 271 -3c61 0 148 5 193 5h17zM888 1350c82.667 -9.33008 165.33 -18.6699 248 -28c-17 -50 -24.3604 -85.1396 -33 -127c-1.86035 -9.03027 -3.01953 -19 -5 -29c-29.29 -147.94 -51 -278 -73 -391c-4 -19.667 -8 -39.333 -12 -59
c-46 -237 -94.1328 -462.861 -232 -595c-101.098 -96.8975 -236 -126 -366 -131c-255 0 -344 116 -344 325c0 43 4.18555 89.9756 11 141c10.2793 76.9619 32.0908 200.982 59 339c34.1152 174.977 75 373 112 534h258c-37 -168 -84.6152 -397.077 -122 -586
c-9.89844 -50.0195 -18.9697 -98.0059 -27 -141c-11.9551 -64.0078 -22.2598 -116.99 -24 -154c-1.1748 -24.9912 -3 -53 -3 -82c0 -81 16 -163 119 -166c202 9 248.643 230.877 304 518c24.2822 125.945 48.1738 274.966 82 448c14.0723 71.9902 26 121 48 184z" />
    <glyph glyph-name="umacron" unicode="&#x16b;" 
d="M951 1384.5c-12.667 -64.6699 -25.333 -129.33 -38 -194c-5.65527 0 -11.3486 0.19043 -17 0c-58 -2 -157 -7 -231 -7s-166 1 -234 3c-5.99902 0.179688 -12.0068 0.669922 -18 1c12.667 65.6699 25.333 131.33 38 197c6.27441 -0.660156 12.6973 -1.80957 19 -2
c65 -2 179 -3 271 -3c61 0 148 5 193 5h17zM815 -17c-58 29 -103 68 -135 250c-78 -110 -178 -228 -329 -231h-9c-136 0 -296 18 -296 185c0 19 2.24707 40.9521 7 64c16.8721 81.8096 31.2324 156.955 50 253c38.4756 196.906 74 393 74 469c0 7 0 14 -1 19
c86.333 9.33008 172.667 18.6699 259 28v-10c0 -100 -55 -358 -122 -712v-3c0 -65 7 -80 52 -80c124 0 338 355 363 482c20.333 105.333 40.667 210.667 61 316h251c-46 -235.667 -92 -471.333 -138 -707c-1 -4 -1 -7 -1 -11c0 -50 48 -109 92 -129
c-59.333 -61 -118.667 -122 -178 -183z" />
    <glyph glyph-name="Ubreve" unicode="&#x16c;" 
d="M728 1527c108 0 187 63 208 141l213 -30c-58 -177 -210 -294 -450 -294c-225 0 -343 78 -347 303l225 30c4 -117 76 -150 151 -150zM888 1350c82.667 -9.33008 165.33 -18.6699 248 -28c-17 -50 -24.3604 -85.1396 -33 -127c-1.86035 -9.03027 -3.01953 -19 -5 -29
c-29.29 -147.94 -51 -278 -73 -391c-4 -19.667 -8 -39.333 -12 -59c-46 -237 -94.1328 -462.861 -232 -595c-101.098 -96.8975 -236 -126 -366 -131c-255 0 -344 116 -344 325c0 43 4.18555 89.9756 11 141c10.2793 76.9619 32.0908 200.982 59 339
c34.1152 174.977 75 373 112 534h258c-37 -168 -84.6152 -397.077 -122 -586c-9.89844 -50.0195 -18.9697 -98.0059 -27 -141c-11.9551 -64.0078 -22.2598 -116.99 -24 -154c-1.1748 -24.9912 -3 -53 -3 -82c0 -81 16 -163 119 -166c202 9 248.643 230.877 304 518
c24.2822 125.945 48.1738 274.966 82 448c14.0723 71.9902 26 121 48 184z" />
    <glyph glyph-name="ubreve" unicode="&#x16d;" 
d="M679 1281c108 0 187 63 208 141l213 -30c-58 -177 -210 -294 -450 -294c-225 0 -343 78 -347 303l225 30c4 -117 76 -150 151 -150zM815 -17c-58 29 -103 68 -135 250c-78 -110 -178 -228 -329 -231h-9c-136 0 -296 18 -296 185c0 19 2.24707 40.9521 7 64
c16.8721 81.8096 31.2324 156.955 50 253c38.4756 196.906 74 393 74 469c0 7 0 14 -1 19c86.333 9.33008 172.667 18.6699 259 28v-10c0 -100 -55 -358 -122 -712v-3c0 -65 7 -80 52 -80c124 0 338 355 363 482c20.333 105.333 40.667 210.667 61 316h251
c-46 -235.667 -92 -471.333 -138 -707c-1 -4 -1 -7 -1 -11c0 -50 48 -109 92 -129c-59.333 -61 -118.667 -122 -178 -183z" />
    <glyph glyph-name="Uring" unicode="&#x16e;" 
d="M724 1641.1c-53 0 -90.0498 -31.6494 -98 -62c-0.797852 -3.04004 -1 -5 -1 -8c0 -28 28 -55 75 -55c52 0 90.0498 32.6504 98 63c0.797852 3.04004 1 6 1 9c0 28 -27 53 -75 53zM437 1579.1c23.0957 115.98 168 204 316 204c135 0 238 -73 238 -174
c0 -10 -1.04004 -19.9893 -3 -30c-22.4805 -114.899 -153 -195 -313 -195c-140 0 -241 68 -241 166c0 9 1.00781 19 3 29zM888 1350c82.667 -9.33008 165.33 -18.6699 248 -28c-17 -50 -24.3604 -85.1396 -33 -127c-1.86035 -9.03027 -3.01953 -19 -5 -29
c-29.29 -147.94 -51 -278 -73 -391c-4 -19.667 -8 -39.333 -12 -59c-46 -237 -94.1328 -462.861 -232 -595c-101.098 -96.8975 -236 -126 -366 -131c-255 0 -344 116 -344 325c0 43 4.18555 89.9756 11 141c10.2793 76.9619 32.0908 200.982 59 339
c34.1152 174.977 75 373 112 534h258c-37 -168 -84.6152 -397.077 -122 -586c-9.89844 -50.0195 -18.9697 -98.0059 -27 -141c-11.9551 -64.0078 -22.2598 -116.99 -24 -154c-1.1748 -24.9912 -3 -53 -3 -82c0 -81 16 -163 119 -166c202 9 248.643 230.877 304 518
c24.2822 125.945 48.1738 274.966 82 448c14.0723 71.9902 26 121 48 184z" />
    <glyph glyph-name="uring" unicode="&#x16f;" 
d="M669 1341c-53 0 -90.0498 -31.6504 -98 -62c-0.797852 -3.04004 -1 -5 -1 -8c0 -28 28 -55 75 -55c52 0 90.0498 32.6504 98 63c0.797852 3.04004 1 6 1 9c0 28 -27 53 -75 53zM382 1279c23.0957 115.98 168 204 316 204c135 0 238 -73 238 -174
c0 -10 -1.04004 -19.9902 -3 -30c-22.4814 -114.9 -153 -195 -313 -195c-140 0 -241 68 -241 166c0 9 1.00781 19 3 29zM815 -17c-58 29 -103 68 -135 250c-78 -110 -178 -228 -329 -231h-9c-136 0 -296 18 -296 185c0 19 2.24707 40.9521 7 64
c16.8721 81.8096 31.2324 156.955 50 253c38.4756 196.906 74 393 74 469c0 7 0 14 -1 19c86.333 9.33008 172.667 18.6699 259 28v-10c0 -100 -55 -358 -122 -712v-3c0 -65 7 -80 52 -80c124 0 338 355 363 482c20.333 105.333 40.667 210.667 61 316h251
c-46 -235.667 -92 -471.333 -138 -707c-1 -4 -1 -7 -1 -11c0 -50 48 -109 92 -129c-59.333 -61 -118.667 -122 -178 -183z" />
    <glyph glyph-name="Uhungarumlaut" unicode="&#x170;" 
d="M692 1470c135 95 281 261 378 402c58.6699 -42.3301 117.33 -84.6699 176 -127c-93 -144 -299 -324 -435 -418c-39.667 47.6699 -79.333 95.3301 -119 143zM310 1477c135 95 281 261 378 402c58.667 -42.3301 117.333 -84.6699 176 -127c-93 -144 -298 -324 -434 -418
c-40 47.6699 -80 95.3301 -120 143zM888 1350c82.667 -9.33008 165.33 -18.6699 248 -28c-17 -50 -24.3604 -85.1396 -33 -127c-1.86035 -9.03027 -3.01953 -19 -5 -29c-29.29 -147.94 -51 -278 -73 -391c-4 -19.667 -8 -39.333 -12 -59
c-46 -237 -94.1328 -462.861 -232 -595c-101.098 -96.8975 -236 -126 -366 -131c-255 0 -344 116 -344 325c0 43 4.18555 89.9756 11 141c10.2793 76.9619 32.0908 200.982 59 339c34.1152 174.977 75 373 112 534h258c-37 -168 -84.6152 -397.077 -122 -586
c-9.89844 -50.0195 -18.9697 -98.0059 -27 -141c-11.9551 -64.0078 -22.2598 -116.99 -24 -154c-1.1748 -24.9912 -3 -53 -3 -82c0 -81 16 -163 119 -166c202 9 248.643 230.877 304 518c24.2822 125.945 48.1738 274.966 82 448c14.0723 71.9902 26 121 48 184z" />
    <glyph glyph-name="uhungarumlaut" unicode="&#x171;" 
d="M722 1192c135 95 281 261 378 402c58.6699 -42.3301 117.33 -84.6699 176 -127c-93 -144 -299 -324 -435 -418c-39.667 47.6699 -79.333 95.3301 -119 143zM340 1199c135 95 281 261 378 402c58.667 -42.3301 117.333 -84.6699 176 -127c-93 -144 -298 -324 -434 -418
c-40 47.6699 -80 95.3301 -120 143zM815 -17c-58 29 -103 68 -135 250c-78 -110 -178 -228 -329 -231h-9c-136 0 -296 18 -296 185c0 19 2.24707 40.9521 7 64c16.8721 81.8096 31.2324 156.955 50 253c38.4756 196.906 74 393 74 469c0 7 0 14 -1 19
c86.333 9.33008 172.667 18.6699 259 28v-10c0 -100 -55 -358 -122 -712v-3c0 -65 7 -80 52 -80c124 0 338 355 363 482c20.333 105.333 40.667 210.667 61 316h251c-46 -235.667 -92 -471.333 -138 -707c-1 -4 -1 -7 -1 -11c0 -50 48 -109 92 -129
c-59.333 -61 -118.667 -122 -178 -183z" />
    <glyph glyph-name="Uogonek" unicode="&#x172;" 
d="M888 1350c82.667 -9.33 165.33 -18.67 248 -28c-17 -50 -24.36 -85.14 -33 -127c-1.86 -9.03 -3.02 -19 -5 -29c-29.29 -147.94 -51 -278 -73 -391c-4 -19.667 -8 -39.333 -12 -59c-46 -237 -94.12 -462.875 -232 -595c-175.152 -167.841 -364.35 -253.55 -395 -371
c-0.795 -3.039 -1 -5 -1 -8c0 -37 50 -49 110 -49c58 0 104 29 138 51c32.333 -47 64.667 -94 97 -141c-53 -48 -183 -106 -283 -106c-165 0 -317 46 -317 194c0 16 1.224 31.956 5 50c23.376 111.694 93 170 202 253c-196 23 -265 135 -265 321c0 43 3.1852 89.976 10 141
c10.2791 76.962 32.091 200.982 59 339c34.115 174.977 75 373 112 534h258c-37 -168 -84.615 -397.077 -122 -586c-9.898 -50.02 -18.97 -98.006 -27 -141c-11.955 -64.008 -22.26 -116.99 -24 -154c-1.175 -24.991 -3 -53 -3 -82c0 -81 16 -163 119 -166
c202 9 248.643 230.877 304 518c24.282 125.945 48.174 274.966 82 448c14.072 71.99 26 121 48 184z" />
    <glyph glyph-name="uogonek" unicode="&#x173;" 
d="M700 108c-90 -77 -227 -103 -378 -106h-9c-139 0 -297 43 -297 185c0 13 1.0352 26.993 4 42c16.1923 81.962 35.2325 178.955 54 275c38.476 196.906 74 393 74 469c0 7 0 14 -1 19c84.333 9.33 168.667 18.67 253 28v-10c0 -100 -55 -358 -122 -712v-6
c0 -62 16 -86 98 -86c153 7 254 85 279 212c39.333 201 78.667 402 118 603h257c-46.667 -238.333 -93.333 -476.667 -140 -715c-1 -4 -1 -7 -1 -11c0 -50 48 -109 92 -129c-280 -321 -490.7 -316.1 -517 -416c-0.802 -3.039 -1 -5 -1 -8c0 -37 50 -49 110 -49
c58 0 104 29 138 51c32.333 -47 64.667 -94 97 -141c-53 -48 -183 -106 -283 -106c-165 0 -317 46 -317 194c0 16 1.263 31.95 5 50c40.859 197.365 309 187 487 367z" />
    <glyph glyph-name="Wcircumflex" unicode="&#x174;" 
d="M790 1792c107.333 -97 214.667 -194 322 -291c-56.3301 -52 -112.667 -104 -169 -156l-201 201l-258 -189l-117 138zM320 0h-241v22c0 215 109 1021 113 1268c80.667 9.66992 161.333 19.3301 242 29c-12 -193 -28.6943 -269.05 -38 -333
c-35.8203 -246.166 -103 -574 -112 -670c0 0 236 600 256 672c21 0 52 -3 85 -3c39 0 82 4 114 19c-13 -218 -13 -685 -13 -685c44 139 90.6621 407.088 152 643c16.9072 65.0195 38 170 112 359c72.3301 -12.6699 144.67 -25.3301 217 -38c-102 -256 -346 -1101 -414 -1283
h-246c0 0 7 397 12 585c-92 -230 -232 -573 -239 -585z" />
    <glyph glyph-name="wcircumflex" unicode="&#x175;" 
d="M752 1503c107.333 -97 214.667 -194 322 -291c-56.3301 -52 -112.667 -104 -169 -156l-201 201l-258 -189l-117 138zM133 984c88 24 175 48 263 72c8 -53 11 -104 11 -154c0 -148 -27 -285 -52 -414c-19 -97 -88 -232 -108 -269c159 111 177 156 233 244
c54 85 53 272 72 372c54 0 108 1 162 1c0 0 -33 -194 -65 -359c-16 -81 -28 -129 -28 -216c0 -16 0 -34 1 -54c134 54 207 380 252 612c5 29 8 57 8 84c0 42 -6 80 -11 110h246c2 -24 3 -48 3 -72c0 -39 -3 -79 -9 -112c-72 -370 -147 -646 -462 -856l-189 48
c0 0 10 141 21 228c-49 -74 -78 -96 -264 -273c-65 22 -130 43 -195 65c79 169 128 467 128 775v19c-1 54 -2 108 -17 149z" />
    <glyph glyph-name="Ycircumflex" unicode="&#x176;" 
d="M738 1816c107.333 -97 214.667 -194 322 -291c-56.3301 -52 -112.667 -104 -169 -156l-201 201l-258 -189l-117 138zM279 18.4004c100 197.333 187 376.267 287 573.6c-57 113 -359 522 -389 630c72.333 46.6699 144.667 93.3301 217 140c25 -79 236 -400 296 -540
c84 184.67 168 369.33 252 554l219 -96c-206 -426.667 -445 -918.934 -651 -1345.6c-63 21 -156 48 -231 84z" />
    <glyph glyph-name="ycircumflex" unicode="&#x177;" 
d="M756 1503c107.333 -97 214.667 -194 322 -291c-56.3301 -52 -112.667 -104 -169 -156l-201 201l-258 -189l-117 138zM54 -32c6 -7 44 -142 189 -142c89 0 199 201 237 295c-117 480 -172 630 -288 630c-20 0 -35 0 -45 -1c2 87.667 4 175.333 6 263h101
c192 0 289 -266 386 -672c116 217 146 445 198 672h256c-12 -60 -23.7402 -122.064 -36 -174c-76.3574 -323.379 -276.837 -725.129 -518 -1030c-136.907 -173.073 -229 -185 -376 -185c-170 0 -281 170 -302 176z" />
    <glyph glyph-name="Ydieresis" unicode="&#x178;" 
d="M820 1675l282 -3c-15.667 -80 -31.333 -160 -47 -240c-93.667 1 -187.333 2 -281 3c15.333 80 30.667 160 46 240zM400 1675h279c-15.333 -80 -30.667 -160 -46 -240h-279c15.333 80 30.667 160 46 240zM279 18.4004c100 197.333 187 376.267 287 573.6
c-57 113 -359 522 -389 630c72.333 46.6699 144.667 93.3301 217 140c25 -79 236 -400 296 -540c84 184.67 168 369.33 252 554l219 -96c-206 -426.667 -445 -918.934 -651 -1345.6c-63 21 -156 48 -231 84z" />
    <glyph glyph-name="Zacute" unicode="&#x179;" 
d="M492 1501c152 48 348 160 484 268c33.667 -57.3301 67.333 -114.67 101 -172c-133 -112 -377 -223 -529 -270c-18.667 58 -37.333 116 -56 174zM48 0c-14.667 49.333 -29.333 98.667 -44 148c272.333 323.667 544.667 647.333 817 971c-214 0 -476 -5 -590 -5l39 210
c120 0 543 4 731 4c75 0 119 -13 137 -16c0 -2 -0.179688 -3.95996 -1 -7c-10.25 -38.25 -10.0498 -145.65 -19 -179c-0.820312 -3.04004 -2 -6 -2 -8c-254 -300.333 -508 -600.667 -762 -901c121 -0.333008 242 -0.666992 363 -1c85 0 113 5 182 26
c9.66699 -71.667 19.333 -143.333 29 -215c-48 -16 -119 -27 -194 -27h-679h-7z" />
    <glyph glyph-name="zacute" unicode="&#x17a;" 
d="M470 1207c152 48 348 160 484 268c33.667 -57.3301 67.333 -114.67 101 -172c-133 -112 -377 -223 -529 -270c-18.667 58 -37.333 116 -56 174zM176 815c23.667 67.333 47.333 134.667 71 202c45 -5 507 -6 631 -6c60 0 86 2 134 27
c37.3301 -52.667 74.6699 -105.333 112 -158c-39 -33 -562 -491 -730 -638c94 0 202 -42 310 -42c69 0 87 77 87 93c77.667 -13.667 155.333 -27.333 233 -41c-22 -106 -36 -260 -296 -260c-159 0 -286 63 -408 63c-55 0 -110 -13 -165 -51
c-19.667 -15.333 -39.333 -30.667 -59 -46c-14.249 10.166 -171 122 -171 122c165 192 569 540 777 726c-68 -1 -122 -3 -223 -3c-125 0 -248 3 -303 12z" />
    <glyph glyph-name="Zdotaccent" unicode="&#x17b;" 
d="M654 1664h284c-15.333 -82 -30.667 -164 -46 -246h-285c15.667 82 31.333 164 47 246zM48 0c-14.667 49.333 -29.333 98.667 -44 148c272.333 323.667 544.667 647.333 817 971c-214 0 -476 -5 -590 -5l39 210c120 0 543 4 731 4c75 0 119 -13 137 -16
c0 -2 -0.179688 -3.95996 -1 -7c-10.25 -38.25 -10.0498 -145.65 -19 -179c-0.820312 -3.04004 -2 -6 -2 -8c-254 -300.333 -508 -600.667 -762 -901c121 -0.333008 242 -0.666992 363 -1c85 0 113 5 182 26c9.66699 -71.667 19.333 -143.333 29 -215
c-48 -16 -119 -27 -194 -27h-679h-7z" />
    <glyph glyph-name="zdotaccent" unicode="&#x17c;" 
d="M603 1429.1h284c-15.333 -81.833 -30.667 -163.666 -46 -245.5h-285c15.667 81.834 31.333 163.667 47 245.5zM176 815c23.667 67.333 47.333 134.667 71 202c45 -5 507 -6 631 -6c60 0 86 2 134 27c37.3301 -52.667 74.6699 -105.333 112 -158
c-39 -33 -562 -491 -730 -638c94 0 202 -42 310 -42c69 0 87 77 87 93c77.667 -13.667 155.333 -27.333 233 -41c-22 -106 -36 -260 -296 -260c-159 0 -286 63 -408 63c-55 0 -110 -13 -165 -51c-19.667 -15.333 -39.333 -30.667 -59 -46c-14.249 10.166 -171 122 -171 122
c165 192 569 540 777 726c-68 -1 -122 -3 -223 -3c-125 0 -248 3 -303 12z" />
    <glyph glyph-name="Zcaron" unicode="&#x17d;" 
d="M704 1352c-102.667 99 -205.333 198 -308 297l171 138c61.667 -63 123.333 -126 185 -189l279 201l108 -156zM48 0c-14.667 49.333 -29.333 98.667 -44 148c272.333 323.667 544.667 647.333 817 971c-214 0 -476 -5 -590 -5l39 210c120 0 543 4 731 4
c75 0 119 -13 137 -16c0 -2 -0.179688 -3.95996 -1 -7c-10.25 -38.25 -10.0498 -145.65 -19 -179c-0.820312 -3.04004 -2 -6 -2 -8c-254 -300.333 -508 -600.667 -762 -901c121 -0.333008 242 -0.666992 363 -1c85 0 113 5 182 26c9.66699 -71.667 19.333 -143.333 29 -215
c-48 -16 -119 -27 -194 -27h-679h-7z" />
    <glyph glyph-name="zcaron" unicode="&#x17e;" 
d="M706 1043c-102.667 99 -205.333 198 -308 297l171 138c61.667 -63 123.333 -126 185 -189l279 201l108 -156zM176 815c23.667 67.333 47.333 134.667 71 202c45 -5 507 -6 631 -6c60 0 86 2 134 27c37.3301 -52.667 74.6699 -105.333 112 -158
c-39 -33 -562 -491 -730 -638c94 0 202 -42 310 -42c69 0 87 77 87 93c77.667 -13.667 155.333 -27.333 233 -41c-22 -106 -36 -260 -296 -260c-159 0 -286 63 -408 63c-55 0 -110 -13 -165 -51c-19.667 -15.333 -39.333 -30.667 -59 -46c-14.249 10.166 -171 122 -171 122
c165 192 569 540 777 726c-68 -1 -122 -3 -223 -3c-125 0 -248 3 -303 12z" />
    <glyph glyph-name="longs" unicode="&#x17f;" 
d="M1007 1206c-25 9 -83 11 -122 11c-132 0 -157.43 -73.92 -169 -134c-5.192 -26.96 -13 -71 -13 -71c-65.667 -337.333 -131.333 -674.667 -197 -1012h-257c52.333 269 104.667 538 157 807h-193c13.333 68.333 26.667 136.667 40 205h193c3 16 6.167 32.97 10 52
c26.134 129.76 135 354 451 354c61 0 139 -4 185 -14c-28.33 -66 -56.67 -132 -85 -198z" />
    <glyph glyph-name="Euro" unicode="&#x20ac;" 
d="M887 866c-32.333 -61.333 -64.667 -122.667 -97 -184c-3.992 0 -8.011 0.14 -12 0c-57 -2 -90 -6 -166 -6h-118c-4 -23 -10.294 -45.176 -15 -67c-1.736 -8.048 -2 -16 -4 -25c30 -1 33 -1 71 -1c86 0 77 1 166 2c8.664 0.097 17.335 0 26 0
c-34 -64.333 -68 -128.667 -102 -193c-64 0.667 -128 1.333 -192 2c-4 -28 -6 -52 -6 -73c0 -102 40 -139 88 -139h18c66 0 151 27 220 133c56.667 -53 113.333 -106 170 -159c-150 -156 -247 -187 -434 -187c-79 0 -198.744 28.1483 -262 138
c-43.822 76.102 -63 148 -63 249c0 12 0 25 1 38c-27 1 -51 2 -75 2c-29 0 -57 -1 -90 -2c22 54 54 128 91 189c40 0 79 1 97 1c3 17 6 33 9 48s5 30 9 44c-80 1 -112 1 -159 5c34 56 77 145 105 189c27 -3 55 -3 110 -4c41 112 69.763 166.15 119 242
c116.438 179.36 293 235 392 235c108 0 216 -31 288 -134c-48 -86.33 -96 -172.67 -144 -259c-34 103 -86 175 -183 175c-93 0 -164 -85 -207 -261h109h77c52 2 88 4 130 4c10.948 0 22.069 -1.338 33 -2z" />
    <glyph glyph-name="uniE000" unicode="&#xe000;" 
d="M171 491c81 112 152 153 216 153c104 0 180 -100 238 -100c23 0 50 16 85 80l14 26l84 -104l-10 -14c-75 -102 -142 -142 -203 -142c-104 0 -174 96 -232 96c-27 0 -51 -11 -89 -77l-13 -22l-102 88z" />
    <glyph glyph-name="uniE001" unicode="&#xe001;" 
d="M404 -11c-99 5 -137 98 -137 207c0 34 3 69 10 103c0 1 1 3 1 4c15 77 48 158 95 221c78 104 158 137 228 140h8c36 0 63 -12 80 -23c9 64 16 116 16 156c0 64 -17 97 -69 97c-59 0 -73 -34 -155 -167l-11 -18l-92 61l9 17c89 176 179 254 278 257c41 0 95 -19 125 -77
c20 -39 35 -97 35 -172c0 -39 -4 -83 -14 -132l-84 -434c-4 -28 -6 -45 -6 -57c0 -20 5 -24 14 -39c1 -2 3 -5 6 -7c11 6 21 23 31 43c51 98 77 217 102 346c19 97 28 187 28 269c0 244 -80 407 -214 407c-178 0 -367 -290 -442 -676c-19 -97 -28 -187 -28 -269
c0 -245 80 -408 207 -408c60 0 124 33 185 90l15 15l58 -96l-13 -13c-77 -73 -189 -146 -275 -146c-191 0 -301 227 -301 537c0 91 9 189 29 290c87 447 347 828 594 828c191 0 300 -227 300 -536c0 -91 -9 -190 -29 -292c-29 -151 -79 -293 -139 -417
c-14 -27 -65 -124 -132 -124h-3h-2l-1 1c-18 5 -45 16 -60 41h-1c-9 18 -30 43 -33 94c-29 -30 -52 -45 -86 -72c-37 -27 -82 -49 -127 -49zM432 141c26 0 57 14 77 29c76 59 103 129 121 164c6 33 18 99 22 118c-23 43 -49 61 -80 61h-3c-55 -2 -141 -98 -161 -203
c0 -2 -1 -3 -1 -5c-5 -28 -7 -53 -7 -74c0 -58 15 -90 32 -90z" />
    <glyph glyph-name="uniE002" unicode="&#xe002;" 
d="M937 703c0 0 -6 -25 -8 -37l-84 -435c-3 -18 -4 -33 -4 -47c0 -41 12 -65 32 -86l14 -15l-110 -79l-8 16c-9 19 -30 43 -33 93c-29 -30 -52 -45 -86 -72c-37 -27 -82 -50 -128 -50c-104 5 -144 147 -144 278c0 38 4 76 10 109c0 1 1 2 1 3c2 12 5 26 8 41
c14 74 38 178 109 289c72 112 162 140 231 143h6c43 0 78 -19 97 -33c4 33 9 61 11 82c5 43 11 90 11 134c0 87 -23 161 -120 161c-157 0 -353 -293 -428 -680c-19 -97 -28 -188 -28 -270c0 -244 79 -408 206 -408c60 0 125 34 186 91l15 15l57 -96l-13 -13
c-77 -73 -188 -147 -274 -147c-191 0 -301 228 -301 538c0 91 9 189 29 290c87 446 334 833 581 833c160 0 208 -130 208 -297c0 -109 -20 -235 -43 -351zM552 144c26 0 56 14 76 29c76 59 102 128 120 163l56 285c-23 44 -72 81 -101 81c-100 0 -162 -204 -186 -327l-3 -15
c-3 -20 -5 -40 -5 -59c0 -83 26 -157 43 -157z" />
    <glyph glyph-name="gravecomb" unicode="&#x300;" 
d="M964 1441c-41.333 -58 -82.667 -116 -124 -174c-134 47 -334 158 -423 270c55.667 57.33 111.333 114.67 167 172c94 -108 246 -220 380 -268z" />
    <glyph glyph-name="acutecomb" unicode="&#x301;" 
d="M404 1441c152 48 348 160 484 268c33.667 -57.33 67.333 -114.67 101 -172c-133 -112 -377 -223 -529 -270c-18.667 58 -37.333 116 -56 174z" />
    <glyph glyph-name="uni0302" unicode="&#x302;" 
d="M774 1699c107.333 -97 214.667 -194 322 -291c-56.33 -52 -112.667 -104 -169 -156l-201 201l-258 -189l-117 138z" />
    <glyph glyph-name="tildecomb" unicode="&#x303;" 
d="M592 1686c216 0 209 -132 299 -132c50 0 87 31 106 100c55.33 -18 110.67 -36 166 -54c-40 -96 -123 -224 -285 -224c-198 0 -193 130 -294 130c-42 0 -87 -37 -108 -100c-56.333 26 -112.667 52 -169 78c51 93 144 202 285 202z" />
    <glyph glyph-name="uni0304" unicode="&#x304;" 
d="M985 1657c-12.667 -64.67 -25.333 -129.33 -38 -194c-5.655 0 -11.349 0.19 -17 0c-58 -2 -157 -7 -231 -7s-166 1 -234 3c-5.999 0.18 -12.007 0.67 -18 1c12.667 65.67 25.333 131.33 38 197c6.274 -0.66 12.697 -1.81 19 -2c65 -2 179 -3 271 -3c61 0 148 5 193 5h17z
" />
    <glyph glyph-name="uni0305" unicode="&#x305;" 
d="M1126 1658l-39 -201c-264 0.33 -528 0.67 -792 1c13.333 67.67 26.667 135.33 40 203c263.667 -1 527.333 -2 791 -3z" />
    <glyph glyph-name="uni0306" unicode="&#x306;" 
d="M728 1508c108 0 187 63 208 141l213 -30c-58 -177 -210 -294 -450 -294c-225 0 -343 78 -347 303l225 30c4 -117 76 -150 151 -150z" />
    <glyph glyph-name="uni0308" unicode="&#x308;" 
d="M813 1654c93.667 -1 187.33 -2 281 -3c-15.67 -80 -31.33 -160 -47 -240c-93.667 1 -187.333 2 -281 3c15.667 80 31.333 160 47 240zM393 1654h279c-15.667 -80 -31.333 -160 -47 -240h-279c15.667 80 31.333 160 47 240z" />
    <glyph glyph-name="uni0307" unicode="&#x307;" 
d="M560 1671h284c-15.333 -82 -30.667 -164 -46 -246h-285c15.667 82 31.333 164 47 246z" />
    <glyph glyph-name="uni030A" unicode="&#x30a;" 
d="M744 1535c-53 0 -90.05 -31.65 -98 -62c-0.798 -3.04 -1 -5 -1 -8c0 -28 28 -55 75 -55c52 0 90.05 32.65 98 63c0.798 3.04 1 6 1 9c0 28 -27 53 -75 53zM457 1473c23.096 115.98 168 204 316 204c135 0 238 -73 238 -174c0 -10 -1.04 -19.99 -3 -30
c-22.481 -114.9 -153 -195 -313 -195c-140 0 -241 68 -241 166c0 9 1.008 19 3 29z" />
    <glyph glyph-name="uni0237" unicode="&#x237;" 
d="M752 -78c-30 -153 -142 -311 -428 -311c-123 0 -273 28 -359 233c64 49.333 128 98.6667 192 148c58 -145 120 -180 183 -180h18c120 0 137 105 146 140c51 253.667 102 507.333 153 761c2 11 3 23 3 33c0 53 -29 88 -85 88c-50 0 -120 -28 -210 -97l-120 135
c153 120 243 141 396 141c225 0 273 -154 273 -238c0 -12 -1 -24 -3 -32c-53 -273.667 -106 -547.333 -159 -821z" />
    <glyph glyph-name="uni030B" unicode="&#x30b;" 
d="M646 1286c135 95 281 261 378 402c58.67 -42.33 117.33 -84.67 176 -127c-93 -144 -299 -324 -435 -418c-39.667 47.67 -79.333 95.33 -119 143zM264 1293c135 95 281 261 378 402c58.667 -42.33 117.333 -84.67 176 -127c-93 -144 -298 -324 -434 -418
c-40 47.67 -80 95.33 -120 143z" />
    <glyph glyph-name="uni030C" unicode="&#x30c;" 
d="M681 1206c-102.667 99 -205.333 198 -308 297l171 138c61.667 -63 123.333 -126 185 -189l279 201l108 -156z" />
    <glyph glyph-name="uni030F" unicode="&#x30f;" 
d="M758 1313c-58.667 -47.67 -117.333 -95.33 -176 -143c-100 94 -234 274 -271 418c75 42.33 150 84.67 225 127c43 -141 123 -307 222 -402zM1143 1320c-58.33 -47.33 -116.67 -94.67 -175 -142c-100 94 -236 274 -273 418c75.333 42 150.667 84 226 126
c43 -141 123 -307 222 -402z" />
    <glyph glyph-name="hookabovecomb" unicode="&#x309;" 
 />
    <glyph glyph-name="uni030D" unicode="&#x30d;" 
 />
    <glyph glyph-name="uni030E" unicode="&#x30e;" 
 />
    <glyph glyph-name="uni0191" unicode="&#x191;" 
d="M345 78c-42 -186 -148 -381 -480 -381l51 264c104 0 139 31 165 124l240 1239h685c102 0 144 -17 175 -34c-39.33 -67.67 -78.67 -135.33 -118 -203c-23 14 -42 27 -140 28h-71c-104 0 -127 0 -310 -1l-51 -258c120 0 83 2 205 2c90 0 153 -18 190 -36
c-35.667 -67.333 -71.333 -134.667 -107 -202c-34 17 -83 22 -128 22h-85c-30 0 -52 0 -117 -2c-20 -101 -74 -404 -104 -562z" />
    <glyph glyph-name="florin" unicode="&#x192;" 
d="M494 126c-52 -246 -221 -466 -541 -466c16.3333 81.333 32.6667 162.667 49 244c142 0 201 66 238 234c43.333 223 86.667 446 130 669h-142c13.333 68.333 26.667 136.667 40 205h142c3 16 6.167 32.97 10 52c26.134 129.76 135 354 451 354c196 0 266 -50 314 -205
c-77 -32.33 -154 -64.67 -231 -97c-10 82 -43 101 -104 101c-132 0 -158.43 -73.92 -170 -134c-5.192 -26.96 -12 -71 -12 -71h184c105 0 144 -12 172 -21c-27.667 -65.667 -55.333 -131.333 -83 -197c-20 7 -39 13 -95 13h-220z" />
    <glyph glyph-name="alpha" unicode="&#x3b1;" 
d="M871 493c9 -77 4.814 -133.026 18 -230c7.889 -58.015 35 -84 96 -110c-46 -61.6667 -92 -123.333 -138 -185c-122 32 -160.102 119.117 -167 179c-2.653 23.035 -5 46 -8 68c-94 -148 -181 -222 -312 -222c-222 0 -299 158 -299 353c0 58 7.0026 118.999 19 181
c71.016 366.997 285 491 460 491c165 0 232 -95 250 -251c50 99 83 177 137 270c68.667 -23.33 137.33 -46.667 206 -70c-90 -126 -177 -306 -262 -474zM333 524c-12.911 -66.017 -18 -118 -18 -160c0 -161 76 -165 85 -165h8c53 0 117 127 190 296c-4 216 -15 320 -88 320
c-49 0 -136.723 -85.055 -177 -291z" />
    <glyph glyph-name="beta" unicode="&#x3b2;" 
d="M285 112c-6 -29 -10.062 -52.988 -14 -73c-24.385 -123.923 -51 -242 -78 -339c-77.667 5.667 -155.333 11.333 -233 17c29 100 54.3042 208.941 76 320c36.5114 186.899 144.26 791.95 178 966c30.232 155.95 175 325 373 325c183 0 370 -44 370 -243
c0 -23 -2.851 -48.03 -8 -75c-34.015 -178.182 -133 -208 -171 -231c136 -25 235 -109 235 -284c0 -34 -3.99 -72.003 -12 -113c-64.894 -332.021 -218 -382 -462 -382h-8c-128 0 -170 39 -246 112zM580 199c122 0 156.904 92.019 176 188c3.98 20.004 6 38 6 55
c0 141 -128 192 -308 192c13.333 69 26.667 138 40 207c140 0 187.87 41.59 208 162c1.165 6.97 2 14 2 21c0 49 -35 98 -119 98c-60 0 -103.952 -39.01 -121 -129c-18.946 -100.01 -65 -353 -112 -595c64 -175 164 -199 228 -199z" />
    <glyph glyph-name="gamma" unicode="&#x3b3;" 
d="M321 -376c20 104 65 350 65 436v8c-9 247 -85.629 515.151 -149 672c-23.86 59.056 -37.144 63.792 -48 71c-13.165 8.741 -35 9 -60 9c-5 0 -10 -1 -15 -1c14.333 74 28.667 148 43 222c33 0 72.034 -0.79 99 -5c61.07 -9.53 133.421 -25.81 175 -119
c67.683 -151.691 119 -365 150 -566c116 217 346 710 346 710c71.333 -25 142.67 -50 214 -75c0 0 -325 -599 -493 -971c-10 -82 -29.521 -190.099 -53 -306c-5.88 -29.024 -11 -59 -17 -88c-85.667 1 -171.333 2 -257 3z" />
    </font>
</defs>
</svg>
